  0
SECTION
  2
HEADER
  9
$ACADVER
  1
AC1015
  9
$ACADMAINTVER
 70
     6
  9
$DWGCODEPAGE
  3
ANSI_1252
  9
$INSBASE
 10
0.0
 20
0.0
 30
0.0
  9
$EXTMIN
 10
-210.0000000000001
 20
0.0
 30
0.0
  9
$EXTMAX
 10
0.0
 20
297.0000000000001
 30
0.0
  9
$LIMMIN
 10
0.0
 20
0.0
  9
$LIMMAX
 10
12.0
 20
9.0
  9
$ORTHOMODE
 70
     0
  9
$REGENMODE
 70
     1
  9
$FILLMODE
 70
     1
  9
$QTEXTMODE
 70
     0
  9
$MIRRTEXT
 70
     1
  9
$LTSCALE
 40
1.0
  9
$ATTMODE
 70
     1
  9
$TEXTSIZE
 40
0.2
  9
$TRACEWID
 40
0.05
  9
$TEXTSTYLE
  7
Standard
  9
$CLAYER
  8
0
  9
$CELTYPE
  6
ByLayer
  9
$CECOLOR
 62
   256
  9
$CELTSCALE
 40
1.0
  9
$DISPSILH
 70
     0
  9
$DIMSCALE
 40
1.0
  9
$DIMASZ
 40
0.18
  9
$DIMEXO
 40
0.0625
  9
$DIMDLI
 40
0.38
  9
$DIMRND
 40
0.0
  9
$DIMDLE
 40
0.0
  9
$DIMEXE
 40
0.18
  9
$DIMTP
 40
0.0
  9
$DIMTM
 40
0.0
  9
$DIMTXT
 40
0.18
  9
$DIMCEN
 40
0.09
  9
$DIMTSZ
 40
0.0
  9
$DIMTOL
 70
     0
  9
$DIMLIM
 70
     0
  9
$DIMTIH
 70
     1
  9
$DIMTOH
 70
     1
  9
$DIMSE1
 70
     0
  9
$DIMSE2
 70
     0
  9
$DIMTAD
 70
     0
  9
$DIMZIN
 70
     0
  9
$DIMBLK
  1

  9
$DIMASO
 70
     1
  9
$DIMSHO
 70
     1
  9
$DIMPOST
  1

  9
$DIMAPOST
  1

  9
$DIMALT
 70
     0
  9
$DIMALTD
 70
     2
  9
$DIMALTF
 40
25.4
  9
$DIMLFAC
 40
1.0
  9
$DIMTOFL
 70
     0
  9
$DIMTVP
 40
0.0
  9
$DIMTIX
 70
     0
  9
$DIMSOXD
 70
     0
  9
$DIMSAH
 70
     0
  9
$DIMBLK1
  1

  9
$DIMBLK2
  1

  9
$DIMSTYLE
  2
Standard
  9
$DIMCLRD
 70
     0
  9
$DIMCLRE
 70
     0
  9
$DIMCLRT
 70
     0
  9
$DIMTFAC
 40
1.0
  9
$DIMGAP
 40
0.09
  9
$DIMJUST
 70
     0
  9
$DIMSD1
 70
     0
  9
$DIMSD2
 70
     0
  9
$DIMTOLJ
 70
     1
  9
$DIMTZIN
 70
     0
  9
$DIMALTZ
 70
     0
  9
$DIMALTTZ
 70
     0
  9
$DIMUPT
 70
     0
  9
$DIMDEC
 70
     4
  9
$DIMTDEC
 70
     4
  9
$DIMALTU
 70
     2
  9
$DIMALTTD
 70
     2
  9
$DIMTXSTY
  7
Standard
  9
$DIMAUNIT
 70
     0
  9
$DIMADEC
 70
     0
  9
$DIMALTRND
 40
0.0
  9
$DIMAZIN
 70
     0
  9
$DIMDSEP
 70
    46
  9
$DIMATFIT
 70
     3
  9
$DIMFRAC
 70
     0
  9
$DIMLDRBLK
  1

  9
$DIMLUNIT
 70
     2
  9
$DIMLWD
 70
    -2
  9
$DIMLWE
 70
    -2
  9
$DIMTMOVE
 70
     0
  9
$LUNITS
 70
     2
  9
$LUPREC
 70
     4
  9
$SKETCHINC
 40
0.1
  9
$FILLETRAD
 40
0.5
  9
$AUNITS
 70
     0
  9
$AUPREC
 70
     0
  9
$MENU
  1
.
  9
$ELEVATION
 40
0.0
  9
$PELEVATION
 40
0.0
  9
$THICKNESS
 40
0.0
  9
$LIMCHECK
 70
     0
  9
$CHAMFERA
 40
0.5
  9
$CHAMFERB
 40
0.5
  9
$CHAMFERC
 40
1.0
  9
$CHAMFERD
 40
0.0
  9
$SKPOLY
 70
     0
  9
$TDCREATE
 40
2456997.490961771
  9
$TDUCREATE
 40
2456997.449295104
  9
$TDUPDATE
 40
2456997.49096213
  9
$TDUUPDATE
 40
2456997.449295463
  9
$TDINDWG
 40
0.0000000116
  9
$TDUSRTIMER
 40
0.0000000116
  9
$USRTIMER
 70
     1
  9
$ANGBASE
 50
0.0
  9
$ANGDIR
 70
     0
  9
$PDMODE
 70
     0
  9
$PDSIZE
 40
0.0
  9
$PLINEWID
 40
0.0
  9
$SPLFRAME
 70
     0
  9
$SPLINETYPE
 70
     6
  9
$SPLINESEGS
 70
     8
  9
$HANDSEED
  5
343
  9
$SURFTAB1
 70
     6
  9
$SURFTAB2
 70
     6
  9
$SURFTYPE
 70
     6
  9
$SURFU
 70
     6
  9
$SURFV
 70
     6
  9
$UCSBASE
  2

  9
$UCSNAME
  2

  9
$UCSORG
 10
0.0
 20
0.0
 30
0.0
  9
$UCSXDIR
 10
1.0
 20
0.0
 30
0.0
  9
$UCSYDIR
 10
0.0
 20
1.0
 30
0.0
  9
$UCSORTHOREF
  2

  9
$UCSORTHOVIEW
 70
     0
  9
$UCSORGTOP
 10
0.0
 20
0.0
 30
0.0
  9
$UCSORGBOTTOM
 10
0.0
 20
0.0
 30
0.0
  9
$UCSORGLEFT
 10
0.0
 20
0.0
 30
0.0
  9
$UCSORGRIGHT
 10
0.0
 20
0.0
 30
0.0
  9
$UCSORGFRONT
 10
0.0
 20
0.0
 30
0.0
  9
$UCSORGBACK
 10
0.0
 20
0.0
 30
0.0
  9
$PUCSBASE
  2

  9
$PUCSNAME
  2

  9
$PUCSORG
 10
0.0
 20
0.0
 30
0.0
  9
$PUCSXDIR
 10
1.0
 20
0.0
 30
0.0
  9
$PUCSYDIR
 10
0.0
 20
1.0
 30
0.0
  9
$PUCSORTHOREF
  2

  9
$PUCSORTHOVIEW
 70
     0
  9
$PUCSORGTOP
 10
0.0
 20
0.0
 30
0.0
  9
$PUCSORGBOTTOM
 10
0.0
 20
0.0
 30
0.0
  9
$PUCSORGLEFT
 10
0.0
 20
0.0
 30
0.0
  9
$PUCSORGRIGHT
 10
0.0
 20
0.0
 30
0.0
  9
$PUCSORGFRONT
 10
0.0
 20
0.0
 30
0.0
  9
$PUCSORGBACK
 10
0.0
 20
0.0
 30
0.0
  9
$USERI1
 70
     0
  9
$USERI2
 70
     0
  9
$USERI3
 70
     0
  9
$USERI4
 70
     0
  9
$USERI5
 70
     0
  9
$USERR1
 40
18.1
  9
$USERR2
 40
0.0
  9
$USERR3
 40
0.0
  9
$USERR4
 40
0.0
  9
$USERR5
 40
0.0
  9
$WORLDVIEW
 70
     1
  9
$SHADEDGE
 70
     3
  9
$SHADEDIF
 70
    70
  9
$TILEMODE
 70
     1
  9
$MAXACTVP
 70
    64
  9
$PINSBASE
 10
0.0
 20
0.0
 30
0.0
  9
$PLIMCHECK
 70
     0
  9
$PEXTMIN
 10
1.00000000000000E+20
 20
1.00000000000000E+20
 30
1.00000000000000E+20
  9
$PEXTMAX
 10
-1.00000000000000E+20
 20
-1.00000000000000E+20
 30
-1.00000000000000E+20
  9
$PLIMMIN
 10
0.0
 20
0.0
  9
$PLIMMAX
 10
12.0
 20
9.0
  9
$UNITMODE
 70
     0
  9
$VISRETAIN
 70
     1
  9
$PLINEGEN
 70
     0
  9
$PSLTSCALE
 70
     1
  9
$TREEDEPTH
 70
  3020
  9
$CMLSTYLE
  2
Standard
  9
$CMLJUST
 70
     0
  9
$CMLSCALE
 40
1.0
  9
$PROXYGRAPHICS
 70
     1
  9
$MEASUREMENT
 70
     1
  9
$CELWEIGHT
370
    -1
  9
$ENDCAPS
280
     0
  9
$JOINSTYLE
280
     0
  9
$LWDISPLAY
290
     0
  9
$INSUNITS
 70
     4
  9
$HYPERLINKBASE
  1

  9
$STYLESHEET
  1

  9
$XEDIT
290
     1
  9
$CEPSNTYPE
380
     0
  9
$PSTYLEMODE
290
     1
  9
$FINGERPRINTGUID
  2
{33606FD2-2765-41D7-B5A2-9D181092100B}
  9
$VERSIONGUID
  2
{FAEB1C32-E019-11D5-929B-00C0DF256EC4}
  9
$EXTNAMES
290
     1
  9
$PSVPSCALE
 40
0.0
  9
$OLESTARTUP
290
     0
  0
ENDSEC
  0
SECTION
  2
CLASSES
  0
CLASS
  1
ACDBDICTIONARYWDFLT
  2
AcDbDictionaryWithDefault
  3
ObjectDBX Classes
 90
        0
280
     0
281
     0
  0
CLASS
  1
VISUALSTYLE
  2
AcDbVisualStyle
  3
ObjectDBX Classes
 90
     4095
280
     0
281
     0
  0
CLASS
  1
MATERIAL
  2
AcDbMaterial
  3
ObjectDBX Classes
 90
     1153
280
     0
281
     0
  0
CLASS
  1
DICTIONARYVAR
  2
AcDbDictionaryVar
  3
ObjectDBX Classes
 90
        0
280
     0
281
     0
  0
CLASS
  1
ACDBPLACEHOLDER
  2
AcDbPlaceHolder
  3
ObjectDBX Classes
 90
        0
280
     0
281
     0
  0
CLASS
  1
LAYOUT
  2
AcDbLayout
  3
ObjectDBX Classes
 90
        0
280
     0
281
     0
  0
ENDSEC
  0
SECTION
  2
TABLES
  0
TABLE
  2
VPORT
  5
8
330
0
100
AcDbSymbolTable
 70
     1
  0
VPORT
  5
29
330
8
100
AcDbSymbolTableRecord
100
AcDbViewportTableRecord
  2
*Active
 70
     0
 10
0.0
 20
0.0
 11
1.0
 21
1.0
 12
-105.0000000000001
 22
148.5000000000001
 13
0.0
 23
0.0
 14
0.5
 24
0.5
 15
0.5
 25
0.5
 16
0.0
 26
0.0
 36
1.0
 17
0.0
 27
0.0
 37
0.0
 40
326.7000000000002
 41
1.60267857142857
 42
50.0
 43
0.0
 44
0.0
 50
0.0
 51
0.0
 71
     0
 72
   100
 73
     1
 74
     3
 75
     0
 76
     0
 77
     0
 78
     0
281
     0
 65
     1
110
0.0
120
0.0
130
0.0
111
1.0
121
0.0
131
0.0
112
0.0
122
1.0
132
0.0
 79
     0
146
0.0
  0
ENDTAB
  0
TABLE
  2
LTYPE
  5
5
330
0
100
AcDbSymbolTable
 70
     8
  0
LTYPE
  5
14
330
5
100
AcDbSymbolTableRecord
100
AcDbLinetypeTableRecord
  2
ByBlock
 70
     0
  3

 72
    65
 73
     0
 40
0.0
  0
LTYPE
  5
15
330
5
100
AcDbSymbolTableRecord
100
AcDbLinetypeTableRecord
  2
ByLayer
 70
     0
  3

 72
    65
 73
     0
 40
0.0
  0
LTYPE
  5
16
330
5
100
AcDbSymbolTableRecord
100
AcDbLinetypeTableRecord
  2
Continuous
 70
     0
  3
Solid line
 72
    65
 73
     0
 40
0.0
  0
LTYPE
  5
3F
330
5
100
AcDbSymbolTableRecord
100
AcDbLinetypeTableRecord
  2
DASHED
 70
     0
  3
Dashed
 72
    65
 73
     2
 40
15.0
 49
7.0
 74
     0
 49
-8.0
 74
     0
  0
LTYPE
  5
40
330
5
100
AcDbSymbolTableRecord
100
AcDbLinetypeTableRecord
  2
DOTTED
 70
     0
  3
Dotted
 72
    65
 73
     2
 40
1.0
 49
0.0
 74
     0
 49
-1.0
 74
     0
  0
LTYPE
  5
41
330
5
100
AcDbSymbolTableRecord
100
AcDbLinetypeTableRecord
  2
DOT_CENTER
 70
     0
  3
Dot_Center
 72
    65
 73
     4
 40
14.0
 49
12.0
 74
     0
 49
-1.0
 74
     0
 49
0.0
 74
     0
 49
-1.0
 74
     0
  0
LTYPE
  5
42
330
5
100
AcDbSymbolTableRecord
100
AcDbLinetypeTableRecord
  2
LONG_DASHED
 70
     0
  3
Long_Dashed
 72
    65
 73
     2
 40
15.0
 49
10.0
 74
     0
 49
-5.0
 74
     0
  0
LTYPE
  5
43
330
5
100
AcDbSymbolTableRecord
100
AcDbLinetypeTableRecord
  2
DASH_CENTER
 70
     0
  3
Dash_Center
 72
    65
 73
     4
 40
14.0
 49
11.0
 74
     0
 49
-1.0
 74
     0
 49
1.0
 74
     0
 49
-1.0
 74
     0
  0
LTYPE
  5
44
330
5
100
AcDbSymbolTableRecord
100
AcDbLinetypeTableRecord
  2
PHANTOM
 70
     0
  3
Phantom
 72
    65
 73
     6
 40
13.0
 49
10.0
 74
     0
 49
-1.0
 74
     0
 49
0.0
 74
     0
 49
-1.0
 74
     0
 49
0.0
 74
     0
 49
-1.0
 74
     0
  0
LTYPE
  5
45
330
5
100
AcDbSymbolTableRecord
100
AcDbLinetypeTableRecord
  2
CENTER_DASH_DASH
 70
     0
  3
Center_Dash_Dash
 72
    65
 73
     6
 40
14.0
 49
9.0
 74
     0
 49
-1.0
 74
     0
 49
1.0
 74
     0
 49
-1.0
 74
     0
 49
1.0
 74
     0
 49
-1.0
 74
     0
  0
ENDTAB
  0
TABLE
  2
LAYER
  5
2
330
0
100
AcDbSymbolTable
 70
     2
  0
LAYER
  5
10
330
2
100
AcDbSymbolTableRecord
100
AcDbLayerTableRecord
  2
0
 70
     0
 62
     7
  6
Continuous
370
    -3
390
F
  0
LAYER
  5
46
330
2
100
AcDbSymbolTableRecord
100
AcDbLayerTableRecord
  2
1
 70
     0
 62
     7
  6
Continuous
370
    -3
390
F
  0
ENDTAB
  0
TABLE
  2
STYLE
  5
3
330
0
100
AcDbSymbolTable
 70
     4
  0
STYLE
  5
11
330
3
100
AcDbSymbolTableRecord
100
AcDbTextStyleTableRecord
  2
Standard
 70
     0
 40
0.0
 41
1.0
 50
0.0
 71
     0
 42
0.2
  3
txt
  4

  0
STYLE
  5
2C2
330
3
100
AcDbSymbolTableRecord
100
AcDbTextStyleTableRecord
  2
CONVERTER_11
 70
     0
 40
0.0
 41
0.95
 50
0.0
 71
     0
 42
0.2
  3
simplex.shx
  4

  0
STYLE
  5
2CB
330
3
100
AcDbSymbolTableRecord
100
AcDbTextStyleTableRecord
  2
CONVERTER_12
 70
     0
 40
0.0
 41
1.2
 50
0.0
 71
     0
 42
0.2
  3
ARIAL.TTF
  4

  0
STYLE
  5
2CE
330
3
100
AcDbSymbolTableRecord
100
AcDbTextStyleTableRecord
  2
CONVERTER_13
 70
     0
 40
0.0
 41
1.44
 50
0.0
 71
     0
 42
0.2
  3
ARIAL.TTF
  4

  0
ENDTAB
  0
TABLE
  2
VIEW
  5
6
330
0
100
AcDbSymbolTable
 70
     0
  0
ENDTAB
  0
TABLE
  2
UCS
  5
7
330
0
100
AcDbSymbolTable
 70
     0
  0
ENDTAB
  0
TABLE
  2
APPID
  5
9
330
0
100
AcDbSymbolTable
 70
     1
  0
APPID
  5
12
330
9
100
AcDbSymbolTableRecord
100
AcDbRegAppTableRecord
  2
ACAD
 70
     0
  0
ENDTAB
  0
TABLE
  2
DIMSTYLE
  5
A
330
0
100
AcDbSymbolTable
 70
     6
100
AcDbDimStyleTable
  0
DIMSTYLE
105
27
330
A
100
AcDbSymbolTableRecord
100
AcDbDimStyleTableRecord
  2
Standard
 70
     0
178
     0
340
11
  0
DIMSTYLE
105
2DE
102
{ACAD_REACTORS
330
2DF
102
}
330
A
100
AcDbSymbolTableRecord
100
AcDbDimStyleTableRecord
  2
ME10_DIM_10
 70
     0
 41
3.0
 42
0.5
 44
1.0
 73
     0
 74
     0
 77
     1
 78
     8
140
3.0
147
2.0
172
     1
173
     1
174
     1
175
     1
176
     2
177
     2
271
     2
178
     4
271
     2
340
2C2
  0
DIMSTYLE
105
2EB
102
{ACAD_REACTORS
330
2EC
102
}
330
A
100
AcDbSymbolTableRecord
100
AcDbDimStyleTableRecord
  2
ME10_DIM_11
 70
     0
  3
max.
 41
3.0
 42
0.5
 44
1.0
 73
     0
 74
     0
 77
     1
 78
     8
140
3.0
147
2.0
172
     1
173
     1
174
     1
175
     1
176
     2
177
     2
271
     2
178
     4
271
     2
340
2C2
  0
DIMSTYLE
105
2F8
102
{ACAD_REACTORS
330
2F9
102
}
330
A
100
AcDbSymbolTableRecord
100
AcDbDimStyleTableRecord
  2
ME10_DIM_12
 70
     0
  3
max.
 41
3.0
 42
0.5
 44
1.0
 73
     0
 74
     0
 77
     1
 78
     8
140
3.0
147
2.0
172
     1
173
     1
174
     1
175
     1
176
     2
177
     2
271
     2
178
     4
271
     2
340
2C2
  0
DIMSTYLE
105
303
102
{ACAD_REACTORS
330
304
102
}
330
A
100
AcDbSymbolTableRecord
100
AcDbDimStyleTableRecord
  2
ME10_DIM_13
 70
     0
  3
max.
 41
3.0
 42
0.5
 44
1.0
 73
     0
 74
     0
 77
     1
 78
     8
140
3.0
147
2.0
172
     1
173
     1
174
     1
175
     1
176
     2
177
     2
271
     2
178
     4
271
     2
340
2C2
  0
DIMSTYLE
105
30E
102
{ACAD_REACTORS
330
30F
102
}
330
A
100
AcDbSymbolTableRecord
100
AcDbDimStyleTableRecord
  2
ME10_DIM_14
 70
     0
  3
max.
 41
3.0
 42
0.5
 44
1.0
 73
     0
 74
     0
 77
     1
 78
     8
140
3.0
147
2.0
172
     1
173
     1
174
     1
175
     1
176
     2
177
     2
271
     2
178
     4
271
     2
340
2C2
  0
ENDTAB
  0
TABLE
  2
BLOCK_RECORD
  5
1
330
0
100
AcDbSymbolTable
 70
     6
  0
BLOCK_RECORD
  5
1F
330
1
100
AcDbSymbolTableRecord
100
AcDbBlockTableRecord
  2
*Model_Space
340
22
  0
BLOCK_RECORD
  5
1B
330
1
100
AcDbSymbolTableRecord
100
AcDbBlockTableRecord
  2
*Paper_Space
340
1E
  0
BLOCK_RECORD
  5
23
330
1
100
AcDbSymbolTableRecord
100
AcDbBlockTableRecord
  2
*Paper_Space0
340
26
  0
BLOCK_RECORD
  5
2D5
330
1
100
AcDbSymbolTableRecord
100
AcDbBlockTableRecord
  2
*D1
340
0
  0
BLOCK_RECORD
  5
2E0
330
1
100
AcDbSymbolTableRecord
100
AcDbBlockTableRecord
  2
*D2
340
0
  0
BLOCK_RECORD
  5
2ED
330
1
100
AcDbSymbolTableRecord
100
AcDbBlockTableRecord
  2
*D3
340
0
  0
BLOCK_RECORD
  5
2FA
330
1
100
AcDbSymbolTableRecord
100
AcDbBlockTableRecord
  2
*D4
340
0
  0
BLOCK_RECORD
  5
305
330
1
100
AcDbSymbolTableRecord
100
AcDbBlockTableRecord
  2
*D5
340
0
  0
ENDTAB
  0
ENDSEC
  0
SECTION
  2
BLOCKS
  0
BLOCK
  5
20
330
1F
100
AcDbEntity
  8
0
100
AcDbBlockBegin
  2
*Model_Space
 70
     0
 10
0.0
 20
0.0
 30
0.0
  3
*Model_Space
  1

  0
ENDBLK
  5
21
330
1F
100
AcDbEntity
  8
0
100
AcDbBlockEnd
  0
BLOCK
  5
1C
330
1B
100
AcDbEntity
 67
     1
  8
0
100
AcDbBlockBegin
  2
*Paper_Space
 70
     0
 10
0.0
 20
0.0
 30
0.0
  3
*Paper_Space
  1

  0
ENDBLK
  5
1D
330
1B
100
AcDbEntity
 67
     1
  8
0
100
AcDbBlockEnd
  0
BLOCK
  5
24
330
23
100
AcDbEntity
  8
0
100
AcDbBlockBegin
  2
*Paper_Space0
 70
     0
 10
0.0
 20
0.0
 30
0.0
  3
*Paper_Space0
  1

  0
ENDBLK
  5
25
330
23
100
AcDbEntity
  8
0
100
AcDbBlockEnd
  0
BLOCK
  5
2DC
330
2D5
100
AcDbEntity
  8
0
100
AcDbBlockBegin
  2
*D1
 70
     1
 10
0.0
 20
0.0
 30
0.0
  3
*D1
  1

  0
LINE
  5
2D6
330
2D5
100
AcDbEntity
  8
1
  6
Continuous
 62
     2
100
AcDbLine
 10
-156.0
 20
184.6698603306041
 30
0.0
 11
-38.0
 21
184.6698603306041
 31
0.0
  0
LINE
  5
2D7
330
2D5
100
AcDbEntity
  8
1
  6
Continuous
 62
     2
100
AcDbLine
 10
-38.0
 20
170.7882730455082
 30
0.0
 11
-38.0
 21
185.6698603306041
 31
0.0
  0
LINE
  5
2D8
330
2D5
100
AcDbEntity
  8
1
  6
Continuous
 62
     2
100
AcDbLine
 10
-156.0
 20
170.7882730455083
 30
0.0
 11
-156.0
 21
185.6698603306041
 31
0.0
  0
SOLID
  5
2D9
330
2D5
100
AcDbEntity
  8
1
 62
     2
100
AcDbTrace
 10
-153.0
 20
185.0648178233663
 30
0.0
 11
-153.0
 21
184.2749028378419
 31
0.0
 12
-156.0
 22
184.6698603306041
 32
0.0
 13
-156.0
 23
184.6698603306041
 33
0.0
  0
SOLID
  5
2DA
330
2D5
100
AcDbEntity
  8
1
 62
     2
100
AcDbTrace
 10
-41.0
 20
184.2749028378419
 30
0.0
 11
-41.0
 21
185.0648178233663
 31
0.0
 12
-38.0
 22
184.6698603306041
 32
0.0
 13
-38.0
 23
184.6698603306041
 33
0.0
  0
MTEXT
  5
2DB
330
2D5
100
AcDbEntity
  8
1
 62
     4
100
AcDbMText
 10
-101.95
 20
186.6698603306041
 30
0.0
 40
3.0
 41
0.0
 71
     7
 72
     1
  1
2000
  7
CONVERTER_11
 11
0.9999999999970619
 21
2.424068405545306E-6
 31
0.0
 73
     1
 44
0.60024009603842
  0
ENDBLK
  5
2DD
330
2D5
100
AcDbEntity
  8
0
100
AcDbBlockEnd
  0
BLOCK
  5
2E9
330
2E0
100
AcDbEntity
  8
0
100
AcDbBlockBegin
  2
*D2
 70
     1
 10
0.0
 20
0.0
 30
0.0
  3
*D2
  1

  0
LINE
  5
2E1
330
2E0
100
AcDbEntity
  8
1
  6
Continuous
 62
     2
100
AcDbLine
 10
-180.3961775799808
 20
180.6774350313001
 30
0.0
 11
-174.3961775799808
 21
180.6774350313001
 31
0.0
  0
LINE
  5
2E2
330
2E0
100
AcDbEntity
  8
1
  6
Continuous
 62
     2
100
AcDbLine
 10
-174.3961775799808
 20
180.6774350313001
 30
0.0
 11
-166.3961775799808
 21
180.6774350313001
 31
0.0
  0
LINE
  5
2E3
330
2E0
100
AcDbEntity
  8
1
  6
Continuous
 62
     2
100
AcDbLine
 10
-166.3961775799808
 20
180.6774350313001
 30
0.0
 11
-160.3961775799808
 21
180.6774350313001
 31
0.0
  0
LINE
  5
2E4
330
2E0
100
AcDbEntity
  8
1
  6
Continuous
 62
     2
100
AcDbLine
 10
-174.3961775799808
 20
172.2882730455081
 30
0.0
 11
-174.3961775799808
 21
181.6774350313001
 31
0.0
  0
LINE
  5
2E5
330
2E0
100
AcDbEntity
  8
1
  6
Continuous
 62
     2
100
AcDbLine
 10
-166.3961775799808
 20
172.2882730455081
 30
0.0
 11
-166.3961775799808
 21
181.6774350313001
 31
0.0
  0
SOLID
  5
2E6
330
2E0
100
AcDbEntity
  8
1
 62
     2
100
AcDbTrace
 10
-177.3961775799808
 20
180.2824775385379
 30
0.0
 11
-177.3961775799808
 21
181.0723925240623
 31
0.0
 12
-174.3961775799808
 22
180.6774350313001
 32
0.0
 13
-174.3961775799808
 23
180.6774350313001
 33
0.0
  0
SOLID
  5
2E7
330
2E0
100
AcDbEntity
  8
1
 62
     2
100
AcDbTrace
 10
-163.3961775799808
 20
181.0723925240623
 30
0.0
 11
-163.3961775799808
 21
180.2824775385379
 31
0.0
 12
-166.3961775799808
 22
180.6774350313001
 32
0.0
 13
-166.3961775799808
 23
180.6774350313001
 33
0.0
  0
MTEXT
  5
2E8
330
2E0
100
AcDbEntity
  8
1
 62
     4
100
AcDbMText
 10
-176.4336775799808
 20
182.6774350313001
 30
0.0
 40
3.0
 41
0.0
 71
     7
 72
     1
  1
\C4;8\C4;max.
  7
CONVERTER_11
 11
0.9999999999970619
 21
2.424068405545306E-6
 31
0.0
 73
     1
 44
0.60024009603842
  0
ENDBLK
  5
2EA
330
2E0
100
AcDbEntity
  8
0
100
AcDbBlockEnd
  0
BLOCK
  5
2F6
330
2ED
100
AcDbEntity
  8
0
100
AcDbBlockBegin
  2
*D3
 70
     1
 10
0.0
 20
0.0
 30
0.0
  3
*D3
  1

  0
LINE
  5
2EE
330
2ED
100
AcDbEntity
  8
1
  6
Continuous
 62
     2
100
AcDbLine
 10
-33.60382242001921
 20
180.6774350313001
 30
0.0
 11
-27.60382242001921
 21
180.6774350313001
 31
0.0
  0
LINE
  5
2EF
330
2ED
100
AcDbEntity
  8
1
  6
Continuous
 62
     2
100
AcDbLine
 10
-27.60382242001921
 20
180.6774350313001
 30
0.0
 11
-19.60382242001921
 21
180.6774350313001
 31
0.0
  0
LINE
  5
2F0
330
2ED
100
AcDbEntity
  8
1
  6
Continuous
 62
     2
100
AcDbLine
 10
-19.60382242001921
 20
180.6774350313001
 30
0.0
 11
-13.60382242001921
 21
180.6774350313001
 31
0.0
  0
LINE
  5
2F1
330
2ED
100
AcDbEntity
  8
1
  6
Continuous
 62
     2
100
AcDbLine
 10
-27.60382242001921
 20
172.2882730455081
 30
0.0
 11
-27.60382242001921
 21
181.6774350313001
 31
0.0
  0
LINE
  5
2F2
330
2ED
100
AcDbEntity
  8
1
  6
Continuous
 62
     2
100
AcDbLine
 10
-19.60382242001921
 20
172.2882730455081
 30
0.0
 11
-19.60382242001921
 21
181.6774350313001
 31
0.0
  0
SOLID
  5
2F3
330
2ED
100
AcDbEntity
  8
1
 62
     2
100
AcDbTrace
 10
-30.60382242001921
 20
180.2824775385379
 30
0.0
 11
-30.60382242001921
 21
181.0723925240623
 31
0.0
 12
-27.60382242001921
 22
180.6774350313001
 32
0.0
 13
-27.60382242001921
 23
180.6774350313001
 33
0.0
  0
SOLID
  5
2F4
330
2ED
100
AcDbEntity
  8
1
 62
     2
100
AcDbTrace
 10
-16.60382242001921
 20
181.0723925240623
 30
0.0
 11
-16.60382242001921
 21
180.2824775385379
 31
0.0
 12
-19.60382242001921
 22
180.6774350313001
 32
0.0
 13
-19.60382242001921
 23
180.6774350313001
 33
0.0
  0
MTEXT
  5
2F5
330
2ED
100
AcDbEntity
  8
1
 62
     4
100
AcDbMText
 10
-29.64132242001921
 20
182.6774350313001
 30
0.0
 40
3.0
 41
0.0
 71
     7
 72
     1
  1
\C4;8\C4;max.
  7
CONVERTER_11
 11
0.9999999999970619
 21
2.424068405545306E-6
 31
0.0
 73
     1
 44
0.60024009603842
  0
ENDBLK
  5
2F7
330
2ED
100
AcDbEntity
  8
0
100
AcDbBlockEnd
  0
BLOCK
  5
301
330
2FA
100
AcDbEntity
  8
0
100
AcDbBlockBegin
  2
*D4
 70
     1
 10
0.0
 20
0.0
 30
0.0
  3
*D4
  1

  0
LINE
  5
2FB
330
2FA
100
AcDbEntity
  8
1
  6
Continuous
 62
     2
100
AcDbLine
 10
-179.5
 20
172.288273045508
 30
0.0
 11
-179.5
 21
156.2882730455084
 31
0.0
  0
LINE
  5
2FC
330
2FA
100
AcDbEntity
  8
1
  6
Continuous
 62
     2
100
AcDbLine
 10
-174.3961775799808
 20
172.288273045508
 30
0.0
 11
-180.5
 21
172.288273045508
 31
0.0
  0
LINE
  5
2FD
330
2FA
100
AcDbEntity
  8
1
  6
Continuous
 62
     2
100
AcDbLine
 10
-174.3961775799808
 20
156.2882730455084
 30
0.0
 11
-180.5
 21
156.2882730455084
 31
0.0
  0
SOLID
  5
2FE
330
2FA
100
AcDbEntity
  8
1
 62
     2
100
AcDbTrace
 10
-179.1050425072378
 20
169.288273045508
 30
0.0
 11
-179.8949574927622
 21
169.288273045508
 31
0.0
 12
-179.5
 22
172.288273045508
 32
0.0
 13
-179.5
 23
172.288273045508
 33
0.0
  0
SOLID
  5
2FF
330
2FA
100
AcDbEntity
  8
1
 62
     2
100
AcDbTrace
 10
-179.8949574927622
 20
159.2882730455084
 30
0.0
 11
-179.1050425072378
 21
159.2882730455084
 31
0.0
 12
-179.5
 22
156.2882730455084
 32
0.0
 13
-179.5
 23
156.2882730455084
 33
0.0
  0
MTEXT
  5
300
330
2FA
100
AcDbEntity
  8
1
 62
     4
100
AcDbMText
 10
-181.5
 20
157.3507730455082
 30
0.0
 40
3.0
 41
0.0
 71
     7
 72
     1
  1
\C4;16\C4;max.
  7
CONVERTER_11
 11
0.0
 21
1.0
 31
0.0
 73
     1
 44
0.60024009603842
  0
ENDBLK
  5
302
330
2FA
100
AcDbEntity
  8
0
100
AcDbBlockEnd
  0
BLOCK
  5
30C
330
305
100
AcDbEntity
  8
0
100
AcDbBlockBegin
  2
*D5
 70
     1
 10
0.0
 20
0.0
 30
0.0
  3
*D5
  1

  0
LINE
  5
306
330
305
100
AcDbEntity
  8
1
  6
Continuous
 62
     2
100
AcDbLine
 10
-11.491898418132
 20
156.2882730455084
 30
0.0
 11
-11.491898418132
 21
172.288273045508
 31
0.0
  0
LINE
  5
307
330
305
100
AcDbEntity
  8
1
  6
Continuous
 62
     2
100
AcDbLine
 10
-19.60382242001921
 20
156.2882730455084
 30
0.0
 11
-10.491898418132
 21
156.2882730455084
 31
0.0
  0
LINE
  5
308
330
305
100
AcDbEntity
  8
1
  6
Continuous
 62
     2
100
AcDbLine
 10
-19.60382242001921
 20
172.288273045508
 30
0.0
 11
-10.491898418132
 21
172.288273045508
 31
0.0
  0
SOLID
  5
309
330
305
100
AcDbEntity
  8
1
 62
     2
100
AcDbTrace
 10
-11.88685591089419
 20
159.2882730455084
 30
0.0
 11
-11.09694092536981
 21
159.2882730455084
 31
0.0
 12
-11.491898418132
 22
156.2882730455084
 32
0.0
 13
-11.491898418132
 23
156.2882730455084
 33
0.0
  0
SOLID
  5
30A
330
305
100
AcDbEntity
  8
1
 62
     2
100
AcDbTrace
 10
-11.09694092536981
 20
169.288273045508
 30
0.0
 11
-11.88685591089419
 21
169.288273045508
 31
0.0
 12
-11.491898418132
 22
172.288273045508
 32
0.0
 13
-11.491898418132
 23
172.288273045508
 33
0.0
  0
MTEXT
  5
30B
330
305
100
AcDbEntity
  8
1
 62
     4
100
AcDbMText
 10
-13.491898418132
 20
157.3507730455082
 30
0.0
 40
3.0
 41
0.0
 71
     7
 72
     1
  1
\C4;16\C4;max.
  7
CONVERTER_11
 11
0.0
 21
1.0
 31
0.0
 73
     1
 44
0.60024009603842
  0
ENDBLK
  5
30D
330
305
100
AcDbEntity
  8
0
100
AcDbBlockEnd
  0
ENDSEC
  0
SECTION
  2
ENTITIES
  0
LINE
  5
47
330
1F
100
AcDbEntity
  8
0
  6
Continuous
 62
     7
100
AcDbLine
 10
-101.0079130336415
 20
245.7700220963569
 30
0.0
 11
-115.7611292456147
 21
253.1466302023438
 31
0.0
  0
LINE
  5
48
330
1F
100
AcDbEntity
  8
0
  6
Continuous
 62
     7
100
AcDbLine
 10
-97.77990512627339
 20
248.6281540976723
 30
0.0
 11
-113.9722748636149
 21
256.7243389663433
 31
0.0
  0
LINE
  5
49
330
1F
100
AcDbEntity
  8
1
  6
Continuous
 62
     2
100
AcDbLine
 10
-93.65668710688688
 20
251.0478450720909
 30
0.0
 11
-103.2566871068869
 21
242.5478450720909
 31
0.0
  0
LINE
  5
4A
330
1F
100
AcDbEntity
  8
1
  6
Continuous
 62
     2
100
AcDbLine
 10
-94.54528258135055
 20
251.4921428093227
 30
0.0
 11
-104.1452825813505
 21
242.9921428093227
 31
0.0
  0
LINE
  5
4B
330
1F
100
AcDbEntity
  8
0
  6
Continuous
 62
     7
100
AcDbLine
 10
-75.3906572582665
 20
236.3697027690457
 30
0.0
 11
-75.3906572582665
 21
228.5754741349857
 31
0.0
  0
LINE
  5
4C
330
1F
100
AcDbEntity
  8
0
  6
Continuous
 62
     2
100
AcDbLine
 10
-75.2442106488598
 20
236.1929260737492
 30
0.0
 11
-75.2442106488598
 21
228.3986974396892
 31
0.0
  0
LINE
  5
4D
330
1F
100
AcDbEntity
  8
0
  6
Continuous
 62
     2
100
AcDbLine
 10
-56.50588094741641
 20
230.2084035268659
 30
0.0
 11
-51.55613347911051
 21
232.6832772610188
 31
0.0
  0
LINE
  5
4E
330
1F
100
AcDbEntity
  8
0
  6
Continuous
 62
     2
100
AcDbLine
 10
-56.50588094741641
 20
230.2084035268659
 30
0.0
 11
-67.46603605580789
 21
235.6884810810619
 31
0.0
  0
LINE
  5
4F
330
1F
100
AcDbEntity
  8
0
  6
Continuous
 62
     7
100
AcDbLine
 10
-75.3906572582665
 20
230.9489330289192
 30
0.0
 11
-80.47915621769219
 21
233.4931825086321
 31
0.0
  0
LINE
  5
50
330
1F
100
AcDbEntity
  8
0
  6
Continuous
 62
     7
100
AcDbLine
 10
-44.02544625947541
 20
215.9653160396458
 30
0.0
 11
-44.02544625947541
 21
225.7514031024085
 31
0.0
  0
LINE
  5
51
330
1F
100
AcDbEntity
  8
0
  6
Continuous
 62
     7
100
AcDbLine
 10
-44.02544625947541
 20
225.7514031024085
 30
0.0
 11
-46.7124520279845
 21
224.4079002181541
 31
0.0
  0
LINE
  5
52
330
1F
100
AcDbEntity
  8
0
  6
Continuous
 62
     7
100
AcDbLine
 10
-45.38484100598961
 20
225.0717057291515
 30
0.0
 11
-45.2982384656114
 21
225.0284044589623
 31
0.0
  0
LINE
  5
53
330
1F
100
AcDbEntity
  8
0
  6
Continuous
 62
     7
100
AcDbLine
 10
-52.53901190495991
 20
230.1062338499323
 30
0.0
 11
-54.81589574038062
 21
228.9677919322218
 31
0.0
  0
LINE
  5
54
330
1F
100
AcDbEntity
  8
0
  6
Continuous
 62
     7
100
AcDbLine
 10
-50.60861039232221
 20
224.8960564616104
 30
0.0
 11
-52.02282395469532
 21
225.603163242797
 31
0.0
  0
LINE
  5
55
330
1F
100
AcDbEntity
  8
0
  6
Continuous
 62
     7
100
AcDbLine
 10
-52.02282395469532
 20
223.438099733336
 30
0.0
 11
-50.60861039232221
 21
222.7309929521493
 31
0.0
  0
LINE
  5
56
330
1F
100
AcDbEntity
  8
0
  6
Continuous
 62
     7
100
AcDbLine
 10
-52.02282395469532
 20
225.603163242797
 30
0.0
 11
-52.02282395469532
 21
223.438099733336
 31
0.0
  0
LINE
  5
57
330
1F
100
AcDbEntity
  8
0
  6
Continuous
 62
     7
100
AcDbLine
 10
-50.60861039232221
 20
222.7309929521493
 30
0.0
 11
-50.60861039232221
 21
224.8960564616104
 31
0.0
  0
LINE
  5
58
330
1F
100
AcDbEntity
  8
0
  6
Continuous
 62
     2
100
AcDbLine
 10
-55.26844408034003
 20
228.1872615038201
 30
0.0
 11
-46.9599394013997
 21
224.0330091643499
 31
0.0
  0
LINE
  5
59
330
1F
100
AcDbEntity
  8
0
  6
Continuous
 62
     2
100
AcDbLine
 10
-54.81589574038062
 20
228.9677919322218
 30
0.0
 11
-46.50739106144032
 21
224.8135395927516
 31
0.0
  0
LINE
  5
5A
330
1F
100
AcDbEntity
  8
0
  6
Continuous
 62
     2
100
AcDbLine
 10
-52.53901190495991
 20
230.1062338499323
 30
0.0
 11
-44.2305072260197
 21
225.951981510462
 31
0.0
  0
LINE
  5
5B
330
1F
100
AcDbEntity
  8
0
  6
Continuous
 62
     2
100
AcDbLine
 10
-56.15232755682322
 20
229.5986141296771
 30
0.0
 11
-51.20258008851732
 21
232.0734878638301
 31
0.0
  0
LINE
  5
5C
330
1F
100
AcDbEntity
  8
0
  6
Continuous
 62
     7
100
AcDbLine
 10
-52.25279520383992
 20
230.1244109937502
 30
0.0
 11
-43.94429052489971
 21
225.9701586542799
 31
0.0
  0
LINE
  5
5D
330
1F
100
AcDbEntity
  8
0
  6
Continuous
 62
     2
100
AcDbLine
 10
-51.20258008851732
 20
232.0734878638301
 30
0.0
 11
-51.20258008851732
 21
229.5993034360889
 31
0.0
  0
LINE
  5
5E
330
1F
100
AcDbEntity
  8
0
  6
Continuous
 62
     7
100
AcDbLine
 10
-51.05613347911051
 20
232.2502645591267
 30
0.0
 11
-51.05613347911051
 21
229.5260801313856
 31
0.0
  0
LINE
  5
5F
330
1F
100
AcDbEntity
  8
0
  6
Continuous
 62
     7
100
AcDbLine
 10
-45.2982384656114
 20
215.4155224769563
 30
0.0
 11
-45.2982384656114
 21
225.0284044589623
 31
0.0
  0
LINE
  5
60
330
1F
100
AcDbEntity
  8
0
  6
Continuous
 62
     7
100
AcDbLine
 10
-46.7124520279845
 20
224.4079002181541
 30
0.0
 11
-46.71245202798422
 21
214.6218131553914
 31
0.0
  0
LINE
  5
61
330
1F
100
AcDbEntity
  8
0
  6
Continuous
 62
     7
100
AcDbLine
 10
-65.43837591715493
 20
228.4172681747099
 30
0.0
 11
-65.79192930774819
 21
228.2404914794132
 31
0.0
  0
LINE
  5
62
330
1F
100
AcDbEntity
  8
0
  6
Continuous
 62
     7
100
AcDbLine
 10
-66.75892927462131
 20
224.1560567525698
 30
0.0
 11
-66.75892927462131
 21
231.9502853866297
 31
0.0
  0
LINE
  5
63
330
1F
100
AcDbEntity
  8
0
  6
Continuous
 62
     7
100
AcDbLine
 10
-66.405375884028
 20
224.3328334478665
 30
0.0
 11
-66.405375884028
 21
231.7735086913332
 31
0.0
  0
LINE
  5
64
330
1F
100
AcDbEntity
  8
0
  6
Continuous
 62
     2
100
AcDbLine
 10
-62.51628858750203
 20
238.1633548152147
 30
0.0
 11
-67.46603605580789
 21
235.6884810810619
 31
0.0
  0
LINE
  5
65
330
1F
100
AcDbEntity
  8
0
  6
Continuous
 62
     7
100
AcDbLine
 10
-66.75892927462131
 20
231.9502853866297
 30
0.0
 11
-58.27364790038282
 21
227.7076446995105
 31
0.0
  0
LINE
  5
66
330
1F
100
AcDbEntity
  8
0
  6
Continuous
 62
     2
100
AcDbLine
 10
-56.85943433800971
 20
229.5986141296771
 30
0.0
 11
-67.8195894464012
 21
235.078691683873
 31
0.0
  0
LINE
  5
67
330
1F
100
AcDbEntity
  8
0
  6
Continuous
 62
     7
100
AcDbLine
 10
-62.292681789752
 20
238.1775557088225
 30
0.0
 11
-51.3325266813606
 21
232.6974781546265
 31
0.0
  0
LINE
  5
68
330
1F
100
AcDbEntity
  8
0
  6
Continuous
 62
     7
100
AcDbLine
 10
-44.09615693759411
 20
225.629445222971
 30
0.0
 11
-44.1827594779724
 21
225.6727464931601
 31
0.0
  0
LINE
  5
69
330
1F
100
AcDbEntity
  8
0
  6
Continuous
 62
     7
100
AcDbLine
 10
-44.09615693759411
 20
225.629445222971
 30
0.0
 11
-44.09615693759411
 21
216.016563240965
 31
0.0
  0
LINE
  5
6A
330
1F
100
AcDbEntity
  8
0
  6
Continuous
 62
     7
100
AcDbLine
 10
-45.2982384656114
 20
225.0284044589623
 30
0.0
 11
-44.09615693759411
 21
225.629445222971
 31
0.0
  0
LINE
  5
6B
330
1F
100
AcDbEntity
  8
0
  6
Continuous
 62
     7
100
AcDbLine
 10
-46.50739106144032
 20
224.8135395927516
 30
0.0
 11
-44.2305072260197
 21
225.951981510462
 31
0.0
  0
LINE
  5
6C
330
1F
100
AcDbEntity
  8
0
  6
Continuous
 62
     7
100
AcDbLine
 10
-43.77795888606021
 20
225.6239994220197
 30
0.0
 11
-43.77795888606021
 21
216.3402070934505
 31
0.0
  0
LINE
  5
6D
330
1F
100
AcDbEntity
  8
0
  6
Continuous
 62
     7
100
AcDbLine
 10
-140.5273204746997
 20
274.2616736291811
 30
0.0
 11
-147.2063922374396
 21
277.6012095105511
 31
0.0
  0
LINE
  5
6E
330
1F
100
AcDbEntity
  8
0
  6
Continuous
 62
     2
100
AcDbLine
 10
-140.6886059690776
 20
274.1810308819922
 30
0.0
 11
-147.4926089385596
 21
277.5830323667332
 31
0.0
  0
LINE
  5
6F
330
1F
100
AcDbEntity
  8
0
  6
Continuous
 62
     7
100
AcDbLine
 10
-147.4926089385596
 20
277.5830323667332
 30
0.0
 11
-149.7694927739804
 21
276.4445904490231
 31
0.0
  0
LINE
  5
70
330
1F
100
AcDbEntity
  8
0
  6
Continuous
 62
     7
100
AcDbLine
 10
-150.2220411139397
 20
275.6640600206213
 30
0.0
 11
-150.2220411139398
 21
266.380267692052
 31
0.0
  0
LINE
  5
71
330
1F
100
AcDbEntity
  8
0
  6
Continuous
 62
     7
100
AcDbLine
 10
-142.9438665208894
 20
262.4781869826863
 30
0.0
 11
-150.0557094751004
 21
266.0341084597917
 31
0.0
  0
LINE
  5
72
330
1F
100
AcDbEntity
  8
0
  6
Continuous
 62
     7
100
AcDbLine
 10
-145.1591565606441
 20
264.8101136136049
 30
0.0
 11
-145.1591565606441
 21
266.975177123066
 31
0.0
  0
LINE
  5
73
330
1F
100
AcDbEntity
  8
0
  6
Continuous
 62
     7
100
AcDbLine
 10
-145.1591565606441
 20
272.1713295457727
 30
0.0
 11
-146.5733701230172
 21
272.8784363269592
 31
0.0
  0
LINE
  5
74
330
1F
100
AcDbEntity
  8
0
  6
Continuous
 62
     7
100
AcDbLine
 10
-146.3258827496019
 20
270.8371165042058
 30
0.0
 11
-146.3258827496018
 21
272.7546926402515
 31
0.0
  0
LINE
  5
75
330
1F
100
AcDbEntity
  8
0
  6
Continuous
 62
     7
100
AcDbLine
 10
-146.3258827496019
 20
265.6409640814991
 30
0.0
 11
-146.3258827496019
 21
267.5585402175449
 31
0.0
  0
LINE
  5
76
330
1F
100
AcDbEntity
  8
0
  6
Continuous
 62
     7
100
AcDbLine
 10
-145.1591565606441
 20
266.975177123066
 30
0.0
 11
-146.5733701230172
 21
267.6822839042526
 31
0.0
  0
LINE
  5
77
330
1F
100
AcDbEntity
  8
0
  6
Continuous
 62
     7
100
AcDbLine
 10
-146.5733701230172
 20
270.7133728174981
 30
0.0
 11
-146.3258827496019
 21
270.8371165042058
 31
0.0
  0
LINE
  5
78
330
1F
100
AcDbEntity
  8
0
  6
Continuous
 62
     7
100
AcDbLine
 10
-146.5733701230172
 20
270.7133728174981
 30
0.0
 11
-145.1591565606441
 21
270.0062660363116
 31
0.0
  0
LINE
  5
79
330
1F
100
AcDbEntity
  8
0
  6
Continuous
 62
     7
100
AcDbLine
 10
-145.1591565606441
 20
270.2537534097269
 30
0.0
 11
-146.3258827496019
 21
270.8371165042058
 31
0.0
  0
LINE
  5
7A
330
1F
100
AcDbEntity
  8
0
  6
Continuous
 62
     7
100
AcDbLine
 10
-146.5733701230172
 20
267.6822839042526
 30
0.0
 11
-146.5733701230172
 21
265.5172203947915
 31
0.0
  0
LINE
  5
7B
330
1F
100
AcDbEntity
  8
0
  6
Continuous
 62
     7
100
AcDbLine
 10
-146.5733701230172
 20
265.5172203947915
 30
0.0
 11
-146.3258827496019
 21
265.6409640814991
 31
0.0
  0
LINE
  5
7C
330
1F
100
AcDbEntity
  8
0
  6
Continuous
 62
     7
100
AcDbLine
 10
-146.5733701230172
 20
265.5172203947915
 30
0.0
 11
-145.1591565606441
 21
264.8101136136049
 31
0.0
  0
LINE
  5
7D
330
1F
100
AcDbEntity
  8
0
  6
Continuous
 62
     7
100
AcDbLine
 10
-145.1591565606441
 20
265.3459815244743
 30
0.0
 11
-146.3258827496019
 21
265.9293446189531
 31
0.0
  0
LINE
  5
7E
330
1F
100
AcDbEntity
  8
0
  6
Continuous
 62
     7
100
AcDbLine
 10
-145.1591565606441
 20
265.0576009870201
 30
0.0
 11
-146.3258827496019
 21
265.6409640814991
 31
0.0
  0
LINE
  5
7F
330
1F
100
AcDbEntity
  8
0
  6
Continuous
 62
     7
100
AcDbLine
 10
-146.5733701230172
 20
272.8784363269592
 30
0.0
 11
-146.5733701230172
 21
270.7133728174981
 31
0.0
  0
LINE
  5
80
330
1F
100
AcDbEntity
  8
0
  6
Continuous
 62
     7
100
AcDbLine
 10
-145.1591565606441
 20
270.0062660363116
 30
0.0
 11
-145.1591565606441
 21
272.1713295457727
 31
0.0
  0
LINE
  5
81
330
1F
100
AcDbEntity
  8
0
  6
Continuous
 62
     7
100
AcDbLine
 10
-142.9438665208894
 20
272.7443836117113
 30
0.0
 11
-142.9438665208894
 21
259.7540025549449
 31
0.0
  0
LINE
  5
82
330
1F
100
AcDbEntity
  8
0
  6
Continuous
 62
     2
100
AcDbLine
 10
-137.4941190525835
 20
275.6522700477564
 30
0.0
 11
-142.4438665208894
 21
273.1773963136036
 31
0.0
  0
LINE
  5
83
330
1F
100
AcDbEntity
  8
0
  6
Continuous
 62
     2
100
AcDbLine
 10
-131.2008687000233
 20
267.3826923224135
 30
0.0
 11
-126.2511212317174
 21
269.8575660565665
 31
0.0
  0
LINE
  5
84
330
1F
100
AcDbEntity
  8
0
  6
Continuous
 62
     2
100
AcDbLine
 10
-131.4837114124979
 20
267.6973187594076
 30
0.0
 11
-126.533963944192
 21
270.1721924935606
 31
0.0
  0
LINE
  5
85
330
1F
100
AcDbEntity
  8
0
  6
Continuous
 62
     2
100
AcDbLine
 10
-142.7974199114827
 20
272.5676069164147
 30
0.0
 11
-142.7974199114827
 21
259.5772258596484
 31
0.0
  0
LINE
  5
86
330
1F
100
AcDbEntity
  8
0
  6
Continuous
 62
     7
100
AcDbLine
 10
-139.26188600555
 20
265.3077218784968
 30
0.0
 11
-140.3225461773298
 21
265.1885329115485
 31
0.0
  0
LINE
  5
87
330
1F
100
AcDbEntity
  8
0
  6
Continuous
 62
     7
100
AcDbLine
 10
-139.5447287180246
 20
265.1388911143299
 30
0.0
 11
-139.26188600555
 21
265.2803124705672
 31
0.0
  0
LINE
  5
88
330
1F
100
AcDbEntity
  8
0
  6
Continuous
 62
     7
100
AcDbLine
 10
-122.0677164593229
 20
265.4669968322555
 30
0.0
 11
-118.8857359439834
 21
263.8760065745857
 31
0.0
  0
LINE
  5
89
330
1F
100
AcDbEntity
  8
0
  6
Continuous
 62
     7
100
AcDbLine
 10
-138.2012258337701
 20
264.6836460231489
 30
0.0
 11
-138.2012258337701
 21
265.1166587250411
 31
0.0
  0
LINE
  5
8A
330
1F
100
AcDbEntity
  8
0
  6
Continuous
 62
     2
100
AcDbLine
 10
-137.8476724431769
 20
265.3728947316367
 30
0.0
 11
-137.4941190525836
 21
265.5496714269334
 31
0.0
  0
LINE
  5
8B
330
1F
100
AcDbEntity
  8
0
  6
Continuous
 62
     7
100
AcDbLine
 10
-138.2012258337701
 20
265.5496714269334
 30
0.0
 11
-137.8476724431769
 21
265.3728947316367
 31
0.0
  0
LINE
  5
8C
330
1F
100
AcDbEntity
  8
0
  6
Continuous
 62
     7
100
AcDbLine
 10
-138.2012258337701
 20
265.1166587250411
 30
0.0
 11
-137.8476724431769
 21
264.9398820297445
 31
0.0
  0
LINE
  5
8D
330
1F
100
AcDbEntity
  8
0
  6
Continuous
 62
     7
100
AcDbLine
 10
-137.4941190525836
 20
265.5496714269334
 30
0.0
 11
-137.8476724431769
 21
265.72644812223
 31
0.0
  0
LINE
  5
8E
330
1F
100
AcDbEntity
  8
0
  6
Continuous
 62
     2
100
AcDbLine
 10
-122.2913232570729
 20
265.4527959386478
 30
0.0
 11
-127.2410707253787
 21
262.9779222044949
 31
0.0
  0
LINE
  5
8F
330
1F
100
AcDbEntity
  8
0
  6
Continuous
 62
     7
100
AcDbLine
 10
-139.26188600555
 20
266.5130142147154
 30
0.0
 11
-139.26188600555
 21
265.2139761090388
 31
0.0
  0
LINE
  5
90
330
1F
100
AcDbEntity
  8
0
  6
Continuous
 62
     7
100
AcDbLine
 10
-139.1911753274313
 20
264.8826551077343
 30
0.0
 11
-139.1911753274313
 21
265.1786207699795
 31
0.0
  0
LINE
  5
91
330
1F
100
AcDbEntity
  8
0
  6
Continuous
 62
     7
100
AcDbLine
 10
-139.26188600555
 20
266.5130142147154
 30
0.0
 11
-138.9083326149567
 21
266.6897909100121
 31
0.0
  0
LINE
  5
92
330
1F
100
AcDbEntity
  8
0
  6
Continuous
 62
     7
100
AcDbLine
 10
-139.5447287180246
 20
265.1388911143299
 30
0.0
 11
-140.676099567923
 21
265.0117562162517
 31
0.0
  0
LINE
  5
93
330
1F
100
AcDbEntity
  8
0
  6
Continuous
 62
     7
100
AcDbLine
 10
-140.676099567923
 20
265.0117562162517
 30
0.0
 11
-140.3225461773298
 21
265.1885329115485
 31
0.0
  0
LINE
  5
94
330
1F
100
AcDbEntity
  8
0
  6
Continuous
 62
     7
100
AcDbLine
 10
-139.5447287180246
 20
265.1388911143299
 30
0.0
 11
-139.5447287180246
 21
264.7058784124378
 31
0.0
  0
LINE
  5
95
330
1F
100
AcDbEntity
  8
0
  6
Continuous
 62
     7
100
AcDbLine
 10
-139.26188600555
 20
265.2139761090388
 30
0.0
 11
-138.2012258337701
 21
264.6836460231489
 31
0.0
  0
LINE
  5
96
330
1F
100
AcDbEntity
  8
0
  6
Continuous
 62
     2
100
AcDbLine
 10
-122.2913232570729
 20
265.4527959386478
 30
0.0
 11
-119.1093427417334
 21
263.861805680978
 31
0.0
  0
LINE
  5
97
330
1F
100
AcDbEntity
  8
0
  6
Continuous
 62
     7
100
AcDbLine
 10
-138.2012258337701
 20
265.5496714269334
 30
0.0
 11
-138.2012258337701
 21
265.9826841288256
 31
0.0
  0
LINE
  5
98
330
1F
100
AcDbEntity
  8
0
  6
Continuous
 62
     7
100
AcDbLine
 10
-137.8476724431769
 20
265.72644812223
 30
0.0
 11
-137.8476724431769
 21
266.1594608241221
 31
0.0
  0
LINE
  5
99
330
1F
100
AcDbEntity
  8
0
  6
Continuous
 62
     7
100
AcDbLine
 10
-138.2012258337701
 20
265.9826841288256
 30
0.0
 11
-137.8476724431769
 21
266.1594608241221
 31
0.0
  0
LINE
  5
9A
330
1F
100
AcDbEntity
  8
0
  6
Continuous
 62
     7
100
AcDbLine
 10
-138.2012258337701
 20
265.5496714269334
 30
0.0
 11
-137.8476724431769
 21
265.72644812223
 31
0.0
  0
LINE
  5
9B
330
1F
100
AcDbEntity
  8
0
  6
Continuous
 62
     7
100
AcDbLine
 10
-137.8476724431769
 20
266.1594608241221
 30
0.0
 11
-138.9083326149567
 21
266.6897909100121
 31
0.0
  0
LINE
  5
9C
330
1F
100
AcDbEntity
  8
0
  6
Continuous
 62
     7
100
AcDbLine
 10
-138.2012258337701
 20
265.9826841288256
 30
0.0
 11
-139.26188600555
 21
266.5130142147154
 31
0.0
  0
LINE
  5
9D
330
1F
100
AcDbEntity
  8
0
  6
Continuous
 62
     7
100
AcDbLine
 10
-141.0296529585163
 20
261.6449719851116
 30
0.0
 11
-141.0296529585163
 21
269.0856472285783
 31
0.0
  0
LINE
  5
9E
330
1F
100
AcDbEntity
  8
0
  6
Continuous
 62
     7
100
AcDbLine
 10
-141.3832063491096
 20
261.468195289815
 30
0.0
 11
-141.3832063491096
 21
269.2624239238749
 31
0.0
  0
LINE
  5
9F
330
1F
100
AcDbEntity
  8
0
  6
Continuous
 62
     7
100
AcDbLine
 10
-133.511371551151
 20
261.1121252052089
 30
0.0
 11
-133.8649249417442
 21
260.9353485099123
 31
0.0
  0
LINE
  5
A0
330
1F
100
AcDbEntity
  8
0
  6
Continuous
 62
     7
100
AcDbLine
 10
-134.4057987421508
 20
262.9009795872088
 30
0.0
 11
-134.7593521327441
 21
262.7242028919121
 31
0.0
  0
LINE
  5
A1
330
1F
100
AcDbEntity
  8
0
  6
Continuous
 62
     7
100
AcDbLine
 10
-135.5495754043207
 20
262.1886865133151
 30
0.0
 11
-134.9866754154057
 21
261.9072365188576
 31
0.0
  0
LINE
  5
A2
330
1F
100
AcDbEntity
  8
0
  6
Continuous
 62
     7
100
AcDbLine
 10
-137.5113311976746
 20
262.7271949898461
 30
0.0
 11
-137.8648845882679
 21
262.5504182945496
 31
0.0
  0
LINE
  5
A3
330
1F
100
AcDbEntity
  8
0
  6
Continuous
 62
     7
100
AcDbLine
 10
-137.8476724431769
 20
264.8604227184455
 30
0.0
 11
-137.8476724431769
 21
264.9398820297445
 31
0.0
  0
LINE
  5
A4
330
1F
100
AcDbEntity
  8
0
  6
Continuous
 62
     7
100
AcDbLine
 10
-139.5447287180246
 20
264.7058784124378
 30
0.0
 11
-139.1911753274313
 21
264.8826551077343
 31
0.0
  0
LINE
  5
A5
330
1F
100
AcDbEntity
  8
0
  6
Continuous
 62
     7
100
AcDbLine
 10
-139.5447287180246
 20
264.1862631701672
 30
0.0
 11
-139.5447287180246
 21
263.7532504682749
 31
0.0
  0
LINE
  5
A6
330
1F
100
AcDbEntity
  8
0
  6
Continuous
 62
     7
100
AcDbLine
 10
-138.2012258337701
 20
264.6836460231489
 30
0.0
 11
-137.8476724431769
 21
264.8604227184455
 31
0.0
  0
LINE
  5
A7
330
1F
100
AcDbEntity
  8
0
  6
Continuous
 62
     7
100
AcDbLine
 10
-139.1911753274313
 20
263.9300271635716
 30
0.0
 11
-139.1911753274313
 21
264.0094864748705
 31
0.0
  0
LINE
  5
A8
330
1F
100
AcDbEntity
  8
0
  6
Continuous
 62
     7
100
AcDbLine
 10
-137.0122604799909
 20
263.7931976840141
 30
0.0
 11
-139.1911753274313
 21
264.8826551077343
 31
0.0
  0
LINE
  5
A9
330
1F
100
AcDbEntity
  8
0
  6
Continuous
 62
     7
100
AcDbLine
 10
-139.5447287180246
 20
263.7532504682749
 30
0.0
 11
-139.1911753274313
 21
263.9300271635716
 31
0.0
  0
LINE
  5
AA
330
1F
100
AcDbEntity
  8
0
  6
Continuous
 62
     7
100
AcDbLine
 10
-139.5447287180246
 20
264.7058784124378
 30
0.0
 11
-136.9637889666937
 21
263.4154085367724
 31
0.0
  0
LINE
  5
AB
330
1F
100
AcDbEntity
  8
0
  6
Continuous
 62
     7
100
AcDbLine
 10
-134.8113305594386
 20
262.6927327237381
 30
0.0
 11
-136.2566821855072
 21
263.4154085367724
 31
0.0
  0
LINE
  5
AC
330
1F
100
AcDbEntity
  8
0
  6
Continuous
 62
     7
100
AcDbLine
 10
-136.6102355761004
 20
263.2386318414757
 30
0.0
 11
-134.9866754154058
 21
262.4268517611283
 31
0.0
  0
LINE
  5
AD
330
1F
100
AcDbEntity
  8
0
  6
Continuous
 62
     7
100
AcDbLine
 10
-136.4334588808038
 20
261.9016498874194
 30
0.0
 11
-136.6759210010496
 21
262.0228809475424
 31
0.0
  0
LINE
  5
AE
330
1F
100
AcDbEntity
  8
0
  6
Continuous
 62
     7
100
AcDbLine
 10
-136.6102355761004
 20
263.2386318414757
 30
0.0
 11
-136.2566821855072
 21
263.4154085367724
 31
0.0
  0
LINE
  5
AF
330
1F
100
AcDbEntity
  8
0
  6
Continuous
 62
     7
100
AcDbLine
 10
-139.5447287180246
 20
264.1862631701672
 30
0.0
 11
-135.9031287949139
 21
262.3654632086118
 31
0.0
  0
LINE
  5
B0
330
1F
100
AcDbEntity
  8
0
  6
Continuous
 62
     7
100
AcDbLine
 10
-135.6508350886788
 20
261.4189340579001
 30
0.0
 11
-136.0043884792722
 21
261.2421573626035
 31
0.0
  0
LINE
  5
B1
330
1F
100
AcDbEntity
  8
0
  6
Continuous
 62
     7
100
AcDbLine
 10
-137.0294743916429
 20
261.8461042522457
 30
0.0
 11
-136.7870122713971
 21
261.7248731921228
 31
0.0
  0
LINE
  5
B2
330
1F
100
AcDbEntity
  8
0
  6
Continuous
 62
     7
100
AcDbLine
 10
-136.9074552510266
 20
261.3520819800453
 30
0.0
 11
-137.194064195018
 21
261.2087775080497
 31
0.0
  0
LINE
  5
B3
330
1F
100
AcDbEntity
  8
0
  6
Continuous
 62
     7
100
AcDbLine
 10
-137.0294743916429
 20
261.4130915503534
 30
0.0
 11
-136.787012271397
 21
261.2918604902307
 31
0.0
  0
LINE
  5
B4
330
1F
100
AcDbEntity
  8
0
  6
Continuous
 62
     2
100
AcDbLine
 10
-136.7870122713971
 20
261.7248731921228
 30
0.0
 11
-136.4334588808038
 21
261.9016498874194
 31
0.0
  0
LINE
  5
B5
330
1F
100
AcDbEntity
  8
0
  6
Continuous
 62
     7
100
AcDbLine
 10
-137.0294743916429
 20
261.8461042522457
 30
0.0
 11
-136.6759210010496
 21
262.0228809475424
 31
0.0
  0
LINE
  5
B6
330
1F
100
AcDbEntity
  8
0
  6
Continuous
 62
     7
100
AcDbLine
 10
-140.676099567923
 20
265.0117562162517
 30
0.0
 11
-139.5447287180246
 21
263.7532504682749
 31
0.0
  0
LINE
  5
B7
330
1F
100
AcDbEntity
  8
0
  6
Continuous
 62
     7
100
AcDbLine
 10
-141.3832063491096
 20
261.468195289815
 30
0.0
 11
-141.0296529585163
 21
261.6449719851116
 31
0.0
  0
LINE
  5
B8
330
1F
100
AcDbEntity
  8
0
  6
Continuous
 62
     7
100
AcDbLine
 10
-129.3773407072524
 20
254.768093358997
 30
0.0
 11
-131.260104614748
 21
253.8267114052492
 31
0.0
  0
LINE
  5
B9
330
1F
100
AcDbEntity
  8
0
  6
Continuous
 62
     7
100
AcDbLine
 10
-118.6093427417334
 20
263.4287929790859
 30
0.0
 11
-118.6093427417334
 21
261.0553340851526
 31
0.0
  0
LINE
  5
BA
330
1F
100
AcDbEntity
  8
0
  6
Continuous
 62
     2
100
AcDbLine
 10
-118.7557893511402
 20
263.2520162837892
 30
0.0
 11
-118.7557893511402
 21
261.128557389856
 31
0.0
  0
LINE
  5
BB
330
1F
100
AcDbEntity
  8
0
  6
Continuous
 62
     2
100
AcDbLine
 10
-118.7557893511402
 20
263.2520162837892
 30
0.0
 11
-123.705536819446
 21
260.7771425496363
 31
0.0
  0
LINE
  5
BC
330
1F
100
AcDbEntity
  8
0
  6
Continuous
 62
     2
100
AcDbLine
 10
-124.4126436006326
 20
260.7771425496363
 30
0.0
 11
-127.594624115972
 21
262.3681328073061
 31
0.0
  0
LINE
  5
BD
330
1F
100
AcDbEntity
  8
0
  6
Continuous
 62
     2
100
AcDbLine
 10
-124.0590902100393
 20
261.3869319468251
 30
0.0
 11
-127.2410707253787
 21
262.9779222044949
 31
0.0
  0
LINE
  5
BE
330
1F
100
AcDbEntity
  8
0
  6
Continuous
 62
     7
100
AcDbLine
 10
-132.8979249748711
 20
265.0197832367558
 30
0.0
 11
-132.8979249748711
 21
257.2255546026956
 31
0.0
  0
LINE
  5
BF
330
1F
100
AcDbEntity
  8
0
  6
Continuous
 62
     2
100
AcDbLine
 10
-123.705536819446
 20
258.161628794404
 30
0.0
 11
-123.705536819446
 21
260.7771425496363
 31
0.0
  0
LINE
  5
C0
330
1F
100
AcDbEntity
  8
0
  6
Continuous
 62
     2
100
AcDbLine
 10
-124.4126436006326
 20
252.9829139155763
 30
0.0
 11
-124.4126436006326
 21
260.7771425496363
 31
0.0
  0
LINE
  5
C1
330
1F
100
AcDbEntity
  8
0
  6
Continuous
 62
     2
100
AcDbLine
 10
-127.594624115972
 20
254.5739041732461
 30
0.0
 11
-124.4126436006326
 21
252.9829139155763
 31
0.0
  0
LINE
  5
C2
330
1F
100
AcDbEntity
  8
0
  6
Continuous
 62
     2
100
AcDbLine
 10
-129.4139150045155
 20
254.7661728711304
 30
0.0
 11
-131.2008687000233
 21
253.8726960233767
 31
0.0
  0
LINE
  5
C3
330
1F
100
AcDbEntity
  8
0
  6
Continuous
 62
     7
100
AcDbLine
 10
-123.8354834122893
 20
252.712477015373
 30
0.0
 11
-121.376614321731
 21
253.9419115606522
 31
0.0
  0
LINE
  5
C4
330
1F
100
AcDbEntity
  8
0
  6
Continuous
 62
     7
100
AcDbLine
 10
-119.5312514223932
 20
261.5162884254825
 30
0.0
 11
-113.5208437823076
 21
258.5110846054397
 31
0.0
  0
LINE
  5
C5
330
1F
100
AcDbEntity
  8
0
  6
Continuous
 62
     2
100
AcDbLine
 10
-119.1093427417334
 20
263.861805680978
 30
0.0
 11
-124.0590902100393
 21
261.3869319468251
 31
0.0
  0
LINE
  5
C6
330
1F
100
AcDbEntity
  8
0
  6
Continuous
 62
     7
100
AcDbLine
 10
-132.8979249748711
 20
257.2255546026956
 30
0.0
 11
-141.3832063491096
 21
261.468195289815
 31
0.0
  0
LINE
  5
C7
330
1F
100
AcDbEntity
  8
0
  6
Continuous
 62
     7
100
AcDbLine
 10
-132.8979249748711
 20
257.579107993289
 30
0.0
 11
-141.0296529585163
 21
261.6449719851116
 31
0.0
  0
LINE
  5
C8
330
1F
100
AcDbEntity
  8
0
  6
Continuous
 62
     7
100
AcDbLine
 10
-141.3832063491096
 20
269.2624239238749
 30
0.0
 11
-132.8979249748711
 21
265.0197832367558
 31
0.0
  0
LINE
  5
C9
330
1F
100
AcDbEntity
  8
0
  6
Continuous
 62
     2
100
AcDbLine
 10
-131.8372648030912
 20
267.0875293622189
 30
0.0
 11
-142.7974199114827
 21
272.5676069164147
 31
0.0
  0
LINE
  5
CA
330
1F
100
AcDbEntity
  8
0
  6
Continuous
 62
     2
100
AcDbLine
 10
-142.7974199114827
 20
259.5772258596484
 30
0.0
 11
-131.8372648030912
 21
254.0971483054525
 31
0.0
  0
LINE
  5
CB
330
1F
100
AcDbEntity
  8
0
  6
Continuous
 62
     2
100
AcDbLine
 10
-126.533963944192
 20
270.1721924935606
 30
0.0
 11
-137.4941190525835
 21
275.6522700477564
 31
0.0
  0
LINE
  5
CC
330
1F
100
AcDbEntity
  8
0
  6
Continuous
 62
     2
100
AcDbLine
 10
-131.4837114124979
 20
267.6973187594076
 30
0.0
 11
-142.4438665208894
 21
273.1773963136036
 31
0.0
  0
LINE
  5
CD
330
1F
100
AcDbEntity
  8
0
  6
Continuous
 62
     7
100
AcDbLine
 10
-127.4646775231287
 20
254.3034672730428
 30
0.0
 11
-124.2826970077893
 21
252.7124770153731
 31
0.0
  0
LINE
  5
CE
330
1F
100
AcDbEntity
  8
0
  6
Continuous
 62
     7
100
AcDbLine
 10
-137.7177258503335
 20
275.6664709413642
 30
0.0
 11
-142.6674733186393
 21
273.1915972072113
 31
0.0
  0
LINE
  5
CF
330
1F
100
AcDbEntity
  8
0
  6
Continuous
 62
     2
100
AcDbLine
 10
-150.2220411139397
 20
275.6640600206213
 30
0.0
 11
-142.9438665208894
 21
272.024972724096
 31
0.0
  0
LINE
  5
D0
330
1F
100
AcDbEntity
  8
0
  6
Continuous
 62
     2
100
AcDbLine
 10
-142.9438665208894
 20
262.7411803955267
 30
0.0
 11
-150.2220411139398
 21
266.380267692052
 31
0.0
  0
LINE
  5
D1
330
1F
100
AcDbEntity
  8
0
  6
Continuous
 62
     2
100
AcDbLine
 10
-149.7694927739804
 20
276.4445904490231
 30
0.0
 11
-142.8751209757474
 21
272.9974045499065
 31
0.0
  0
LINE
  5
D2
330
1F
100
AcDbEntity
  8
0
  6
Continuous
 62
     7
100
AcDbLine
 10
-126.310357146442
 20
270.1863933871682
 30
0.0
 11
-137.2705122548335
 21
275.6664709413642
 31
0.0
  0
LINE
  5
D3
330
1F
100
AcDbEntity
  8
0
  6
Continuous
 62
     7
100
AcDbLine
 10
-142.6674733186394
 20
259.3067889594449
 30
0.0
 11
-131.7073182102479
 21
253.8267114052492
 31
0.0
  0
LINE
  5
D4
330
1F
100
AcDbEntity
  8
0
  6
Continuous
 62
     2
100
AcDbLine
 10
-123.705536819446
 20
252.9829139155763
 30
0.0
 11
-123.7055368194544
 21
255.5984276708289
 31
0.0
  0
LINE
  5
D5
330
1F
100
AcDbEntity
  8
0
  6
Continuous
 62
     2
100
AcDbLine
 10
-123.705536819446
 20
252.9829139155763
 30
0.0
 11
-121.5820779255127
 21
254.044643362543
 31
0.0
  0
LINE
  5
D6
330
1F
100
AcDbEntity
  8
0
  6
Continuous
 62
     7
100
AcDbLine
 10
-122.9300747481929
 20
254.7186417738831
 30
0.0
 11
-116.9196671081073
 21
251.7134379538403
 31
0.0
  0
LINE
  5
D7
330
1F
100
AcDbEntity
  8
0
  6
Continuous
 62
     7
100
AcDbLine
 10
-69.71730299221069
 20
239.2917900986986
 30
0.0
 11
-66.5353224768712
 21
237.7007998410288
 31
0.0
  0
LINE
  5
D8
330
1F
100
AcDbEntity
  8
0
  6
Continuous
 62
     2
100
AcDbLine
 10
-74.8906572582665
 20
236.802715470938
 30
0.0
 11
-69.9409097899606
 21
239.2775892050909
 31
0.0
  0
LINE
  5
D9
330
1F
100
AcDbEntity
  8
0
  6
Continuous
 62
     2
100
AcDbLine
 10
-69.9409097899606
 20
239.2775892050909
 30
0.0
 11
-66.7589292746212
 21
237.6865989474212
 31
0.0
  0
LINE
  5
DA
330
1F
100
AcDbEntity
  8
0
  6
Continuous
 62
     2
100
AcDbLine
 10
-71.7086767429271
 20
235.2117252132683
 30
0.0
 11
-74.8906572582665
 21
236.802715470938
 31
0.0
  0
LINE
  5
DB
330
1F
100
AcDbEntity
  8
0
  6
Continuous
 62
     2
100
AcDbLine
 10
-62.51628858750203
 20
238.1633548152147
 30
0.0
 11
-51.55613347911051
 21
232.6832772610188
 31
0.0
  0
LINE
  5
DC
330
1F
100
AcDbEntity
  8
0
  6
Continuous
 62
     2
100
AcDbLine
 10
-72.0622301335204
 20
234.6019358160794
 30
0.0
 11
-75.2442106488598
 21
236.1929260737492
 31
0.0
  0
LINE
  5
DD
330
1F
100
AcDbEntity
  8
0
  6
Continuous
 62
     2
100
AcDbLine
 10
-66.7589292746212
 20
237.6865989474212
 30
0.0
 11
-71.7086767429271
 21
235.2117252132683
 31
0.0
  0
LINE
  5
DE
330
1F
100
AcDbEntity
  8
0
  6
Continuous
 62
     7
100
AcDbLine
 10
-75.1142640560165
 20
236.8169163645458
 30
0.0
 11
-70.1645165877106
 21
239.2917900986986
 31
0.0
  0
LINE
  5
DF
330
1F
100
AcDbEntity
  8
0
  6
Continuous
 62
     7
100
AcDbLine
 10
-62.73989538525202
 20
238.1775557088225
 30
0.0
 11
-67.68964285355791
 21
235.7026819746695
 31
0.0
  0
LINE
  5
E0
330
1F
100
AcDbEntity
  8
0
  6
Continuous
 62
     7
100
AcDbLine
 10
-72.62338567826892
 20
238.0623555534195
 30
0.0
 11
-77.08033289189261
 21
240.2908291602313
 31
0.0
  0
LINE
  5
E1
330
1F
100
AcDbEntity
  8
0
  6
Continuous
 62
     7
100
AcDbLine
 10
-81.5992112817667
 20
236.0656712204191
 30
0.0
 11
-100.1193175591778
 21
245.3257243591249
 31
0.0
  0
LINE
  5
E2
330
1F
100
AcDbEntity
  8
0
  6
Continuous
 62
     7
100
AcDbLine
 10
-50.60861039232221
 20
222.9784803255647
 30
0.0
 11
-51.77533658128001
 21
223.5618434200435
 31
0.0
  0
LINE
  5
E3
330
1F
100
AcDbEntity
  8
0
  6
Continuous
 62
     7
100
AcDbLine
 10
-51.77533658128001
 20
223.5618434200435
 30
0.0
 11
-51.77533658128001
 21
225.4794195560893
 31
0.0
  0
LINE
  5
E4
330
1F
100
AcDbEntity
  8
0
  6
Continuous
 62
     7
100
AcDbLine
 10
-52.02282395469532
 20
223.438099733336
 30
0.0
 11
-51.77533658128001
 21
223.5618434200435
 31
0.0
  0
LINE
  5
E5
330
1F
100
AcDbEntity
  8
0
  6
Continuous
 62
     7
100
AcDbLine
 10
-51.59148881817
 20
225.3874956745344
 30
0.0
 11
-51.59148881816991
 21
223.4699195384885
 31
0.0
  0
LINE
  5
E6
330
1F
100
AcDbEntity
  8
0
  6
Continuous
 62
     7
100
AcDbLine
 10
-53.4726795253002
 20
217.7425934848906
 30
0.0
 11
-56.2822741496665
 21
216.3377961727074
 31
0.0
  0
LINE
  5
E7
330
1F
100
AcDbEntity
  8
0
  6
Continuous
 62
     2
100
AcDbLine
 10
-56.85943433800971
 20
216.6082330729108
 30
0.0
 11
-56.85943433800971
 21
229.5986141296771
 31
0.0
  0
LINE
  5
E8
330
1F
100
AcDbEntity
  8
0
  6
Continuous
 62
     2
100
AcDbLine
 10
-56.15232755682322
 20
216.6082330729108
 30
0.0
 11
-56.15232755682322
 21
229.5986141296771
 31
0.0
  0
LINE
  5
E9
330
1F
100
AcDbEntity
  8
0
  6
Continuous
 62
     7
100
AcDbLine
 10
-46.95993940139962
 20
214.7492168357808
 30
0.0
 11
-46.9599394013997
 21
224.0330091643499
 31
0.0
  0
LINE
  5
EA
330
1F
100
AcDbEntity
  8
0
  6
Continuous
 62
     7
100
AcDbLine
 10
-51.77533658127992
 20
218.3836212313022
 30
0.0
 11
-51.50488627779151
 21
218.5188463830465
 31
0.0
  0
LINE
  5
EB
330
1F
100
AcDbEntity
  8
0
  6
Continuous
 62
     7
100
AcDbLine
 10
-52.02282395469521
 20
218.2419473106293
 30
0.0
 11
-51.77533658127992
 21
218.365690997337
 31
0.0
  0
LINE
  5
EC
330
1F
100
AcDbEntity
  8
0
  6
Continuous
 62
     7
100
AcDbLine
 10
-50.60861039232221
 20
217.7823279028581
 30
0.0
 11
-51.77533658127992
 21
218.365690997337
 31
0.0
  0
LINE
  5
ED
330
1F
100
AcDbEntity
  8
0
  6
Continuous
 62
     7
100
AcDbLine
 10
-50.60861039232221
 20
218.0707084403118
 30
0.0
 11
-51.59148881816991
 21
218.5621476532357
 31
0.0
  0
LINE
  5
EE
330
1F
100
AcDbEntity
  8
0
  6
Continuous
 62
     7
100
AcDbLine
 10
-51.59148881816991
 20
220.1913432518278
 30
0.0
 11
-51.59148881816991
 21
218.5621476532357
 31
0.0
  0
LINE
  5
EF
330
1F
100
AcDbEntity
  8
0
  6
Continuous
 62
     7
100
AcDbLine
 10
-50.60861039232221
 20
219.6999040389039
 30
0.0
 11
-52.02282395469532
 21
220.4070108200904
 31
0.0
  0
LINE
  5
F0
330
1F
100
AcDbEntity
  8
0
  6
Continuous
 62
     7
100
AcDbLine
 10
-50.60861039232221
 20
217.5348405294428
 30
0.0
 11
-50.60861039232221
 21
219.6999040389039
 31
0.0
  0
LINE
  5
F1
330
1F
100
AcDbEntity
  8
0
  6
Continuous
 62
     7
100
AcDbLine
 10
-52.02282395469521
 20
218.2419473106293
 30
0.0
 11
-50.60861039232221
 21
217.5348405294428
 31
0.0
  0
LINE
  5
F2
330
1F
100
AcDbEntity
  8
0
  6
Continuous
 62
     7
100
AcDbLine
 10
-52.02282395469532
 20
220.4070108200904
 30
0.0
 11
-52.02282395469521
 21
218.2419473106293
 31
0.0
  0
LINE
  5
F3
330
1F
100
AcDbEntity
  8
0
  6
Continuous
 62
     7
100
AcDbLine
 10
-51.77533658127992
 20
218.365690997337
 30
0.0
 11
-51.77533658127992
 21
220.2832671333828
 31
0.0
  0
LINE
  5
F4
330
1F
100
AcDbEntity
  8
0
  6
Continuous
 62
     2
100
AcDbLine
 10
-46.95993940139962
 20
214.7492168357808
 30
0.0
 11
-55.26844408033991
 21
218.903469175251
 31
0.0
  0
LINE
  5
F5
330
1F
100
AcDbEntity
  8
0
  6
Continuous
 62
     2
100
AcDbLine
 10
-53.67814312908183
 20
217.8453252867814
 30
0.0
 11
-56.15232755682322
 21
216.6082330729108
 31
0.0
  0
LINE
  5
F6
330
1F
100
AcDbEntity
  8
0
  6
Continuous
 62
     7
100
AcDbLine
 10
-44.02544625947541
 20
215.9653160396458
 30
0.0
 11
-44.1120487998539
 21
216.008617309835
 31
0.0
  0
LINE
  5
F7
330
1F
100
AcDbEntity
  8
0
  6
Continuous
 62
     7
100
AcDbLine
 10
-45.2982384656114
 20
215.4155224769563
 30
0.0
 11
-46.7124520279845
 21
216.122629258143
 31
0.0
  0
LINE
  5
F8
330
1F
100
AcDbEntity
  8
0
  6
Continuous
 62
     7
100
AcDbLine
 10
-44.09615693759411
 20
216.016563240965
 30
0.0
 11
-45.2982384656114
 21
215.4155224769563
 31
0.0
  0
LINE
  5
F9
330
1F
100
AcDbEntity
  8
0
  6
Continuous
 62
     7
100
AcDbLine
 10
-46.71245202798422
 20
214.6218131553914
 30
0.0
 11
-44.02544625947541
 21
215.9653160396458
 31
0.0
  0
LINE
  5
FA
330
1F
100
AcDbEntity
  8
0
  6
Continuous
 62
     7
100
AcDbLine
 10
-44.23050722601951
 20
215.5596766650489
 30
0.0
 11
-46.50739106144021
 21
214.4212347473384
 31
0.0
  0
LINE
  5
FB
330
1F
100
AcDbEntity
  8
0
  6
Continuous
 62
     7
100
AcDbLine
 10
-46.79360776256021
 20
214.4030576035206
 30
0.0
 11
-55.1021124415005
 21
218.5573099429907
 31
0.0
  0
LINE
  5
FC
330
1F
100
AcDbEntity
  8
0
  6
Continuous
 62
     7
100
AcDbLine
 10
-67.68964285355791
 20
221.8178737269033
 30
0.0
 11
-56.7294877451664
 21
216.3377961727074
 31
0.0
  0
LINE
  5
FD
330
1F
100
AcDbEntity
  8
0
  6
Continuous
 62
     2
100
AcDbLine
 10
-75.2442106488598
 20
228.3986974396892
 30
0.0
 11
-72.0622301335204
 21
226.8077071820194
 31
0.0
  0
LINE
  5
FE
330
1F
100
AcDbEntity
  8
0
  6
Continuous
 62
     7
100
AcDbLine
 10
-75.1142640560165
 20
228.1282605394858
 30
0.0
 11
-71.93228354067709
 21
226.5372702818161
 31
0.0
  0
LINE
  5
FF
330
1F
100
AcDbEntity
  8
0
  6
Continuous
 62
     7
100
AcDbLine
 10
-62.10923666388111
 20
228.1438391765724
 30
0.0
 11
-62.46279005447442
 21
227.9670624812758
 31
0.0
  0
LINE
  5
100
330
1F
100
AcDbEntity
  8
0
  6
Continuous
 62
     2
100
AcDbLine
 10
-62.8698419780953
 20
227.8839794990948
 30
0.0
 11
-62.51628858750203
 21
228.0607561943916
 31
0.0
  0
LINE
  5
101
330
1F
100
AcDbEntity
  8
0
  6
Continuous
 62
     7
100
AcDbLine
 10
-62.6273798578494
 20
227.7627484389719
 30
0.0
 11
-62.8698419780953
 21
227.8839794990948
 31
0.0
  0
LINE
  5
102
330
1F
100
AcDbEntity
  8
0
  6
Continuous
 62
     7
100
AcDbLine
 10
-62.6273798578494
 20
227.3297357370798
 30
0.0
 11
-62.8698419780953
 21
227.4509667972027
 31
0.0
  0
LINE
  5
103
330
1F
100
AcDbEntity
  8
0
  6
Continuous
 62
     7
100
AcDbLine
 10
-64.07314137484352
 20
227.3236381314395
 30
0.0
 11
-64.31662544349331
 21
227.4453801657645
 31
0.0
  0
LINE
  5
104
330
1F
100
AcDbEntity
  8
0
  6
Continuous
 62
     7
100
AcDbLine
 10
-64.1072788451718
 20
226.9871534760104
 30
0.0
 11
-64.67017883408661
 21
227.2686034704677
 31
0.0
  0
LINE
  5
105
330
1F
100
AcDbEntity
  8
0
  6
Continuous
 62
     7
100
AcDbLine
 10
-64.67017883408661
 20
227.2686034704677
 30
0.0
 11
-64.31662544349331
 21
227.4453801657645
 31
0.0
  0
LINE
  5
106
330
1F
100
AcDbEntity
  8
0
  6
Continuous
 62
     7
100
AcDbLine
 10
-63.29891237962701
 20
228.1104593220186
 30
0.0
 11
-63.65246577022023
 21
227.933682626722
 31
0.0
  0
LINE
  5
107
330
1F
100
AcDbEntity
  8
0
  6
Continuous
 62
     7
100
AcDbLine
 10
-61.43841627063122
 20
226.8021983900726
 30
0.0
 11
-61.79196966122452
 21
226.6254216947759
 31
0.0
  0
LINE
  5
108
330
1F
100
AcDbEntity
  8
0
  6
Continuous
 62
     7
100
AcDbLine
 10
-60.11212553146782
 20
225.3431302097516
 30
0.0
 11
-63.40017206398522
 21
226.9871534760104
 31
0.0
  0
LINE
  5
109
330
1F
100
AcDbEntity
  8
0
  6
Continuous
 62
     7
100
AcDbLine
 10
-60.11212553146782
 20
224.9895768191583
 30
0.0
 11
-63.75372545457852
 21
226.8103767807138
 31
0.0
  0
LINE
  5
10A
330
1F
100
AcDbEntity
  8
0
  6
Continuous
 62
     2
100
AcDbLine
 10
-61.8091818063155
 20
224.235957959581
 30
0.0
 11
-61.45562841572222
 21
224.4127346548777
 31
0.0
  0
LINE
  5
10B
330
1F
100
AcDbEntity
  8
0
  6
Continuous
 62
     7
100
AcDbLine
 10
-61.45562841572222
 20
224.4921939661766
 30
0.0
 11
-61.45562841572222
 21
224.4127346548777
 31
0.0
  0
LINE
  5
10C
330
1F
100
AcDbEntity
  8
0
  6
Continuous
 62
     7
100
AcDbLine
 10
-62.39584560787252
 20
228.0005347045768
 30
0.0
 11
-62.51628858750203
 21
228.0607561943916
 31
0.0
  0
LINE
  5
10D
330
1F
100
AcDbEntity
  8
0
  6
Continuous
 62
     7
100
AcDbLine
 10
-60.11212553146782
 20
224.4699615768876
 30
0.0
 11
-62.69306528279872
 21
225.7604314525531
 31
0.0
  0
LINE
  5
10E
330
1F
100
AcDbEntity
  8
0
  6
Continuous
 62
     7
100
AcDbLine
 10
-61.45562841572222
 20
223.6261685623922
 30
0.0
 11
-61.45562841572222
 21
223.1931558604999
 31
0.0
  0
LINE
  5
10F
330
1F
100
AcDbEntity
  8
0
  6
Continuous
 62
     7
100
AcDbLine
 10
-60.04141485334912
 20
222.8396024699067
 30
0.0
 11
-60.04141485334912
 21
224.0448948061253
 31
0.0
  0
LINE
  5
110
330
1F
100
AcDbEntity
  8
0
  6
Continuous
 62
     7
100
AcDbLine
 10
-60.39496824394242
 20
222.66282577461
 30
0.0
 11
-60.39496824394242
 21
223.9618638802866
 31
0.0
  0
LINE
  5
111
330
1F
100
AcDbEntity
  8
0
  6
Continuous
 62
     7
100
AcDbLine
 10
-60.39496824394242
 20
222.66282577461
 30
0.0
 11
-60.04141485334912
 21
222.8396024699067
 31
0.0
  0
LINE
  5
112
330
1F
100
AcDbEntity
  8
0
  6
Continuous
 62
     7
100
AcDbLine
 10
-60.39496824394242
 20
223.9618638802866
 30
0.0
 11
-60.11212553146782
 21
224.103285236524
 31
0.0
  0
LINE
  5
113
330
1F
100
AcDbEntity
  8
0
  6
Continuous
 62
     7
100
AcDbLine
 10
-61.45562841572222
 20
223.1931558604999
 30
0.0
 11
-60.39496824394242
 21
222.66282577461
 31
0.0
  0
LINE
  5
114
330
1F
100
AcDbEntity
  8
0
  6
Continuous
 62
     7
100
AcDbLine
 10
-61.45562841572222
 20
223.6261685623922
 30
0.0
 11
-61.8091818063155
 21
223.8029452576888
 31
0.0
  0
LINE
  5
115
330
1F
100
AcDbEntity
  8
0
  6
Continuous
 62
     7
100
AcDbLine
 10
-60.11212553146782
 20
224.9895768191583
 30
0.0
 11
-60.11212553146782
 21
225.4225895210506
 31
0.0
  0
LINE
  5
116
330
1F
100
AcDbEntity
  8
0
  6
Continuous
 62
     7
100
AcDbLine
 10
-60.11212553146782
 20
225.4225895210506
 30
0.0
 11
-59.75857214087451
 21
225.5993662163472
 31
0.0
  0
LINE
  5
117
330
1F
100
AcDbEntity
  8
0
  6
Continuous
 62
     7
100
AcDbLine
 10
-58.62720129097612
 20
224.3408604683705
 30
0.0
 11
-59.75857214087451
 21
225.5993662163472
 31
0.0
  0
LINE
  5
118
330
1F
100
AcDbEntity
  8
0
  6
Continuous
 62
     7
100
AcDbLine
 10
-58.98075468156932
 20
224.1640837730737
 30
0.0
 11
-60.11212553146782
 21
225.4225895210506
 31
0.0
  0
LINE
  5
119
330
1F
100
AcDbEntity
  8
0
  6
Continuous
 62
     7
100
AcDbLine
 10
-63.75372545457852
 20
226.8103767807138
 30
0.0
 11
-63.40017206398522
 21
226.9871534760104
 31
0.0
  0
LINE
  5
11A
330
1F
100
AcDbEntity
  8
0
  6
Continuous
 62
     7
100
AcDbLine
 10
-64.54394872615501
 20
226.6284137927099
 30
0.0
 11
-64.89750211674831
 21
226.4516370974134
 31
0.0
  0
LINE
  5
11B
330
1F
100
AcDbEntity
  8
0
  6
Continuous
 62
     7
100
AcDbLine
 10
-61.45562841572222
 20
224.4921939661766
 30
0.0
 11
-61.102075025129
 21
224.6689706614733
 31
0.0
  0
LINE
  5
11C
330
1F
100
AcDbEntity
  8
0
  6
Continuous
 62
     7
100
AcDbLine
 10
-60.11212553146782
 20
224.0369488749955
 30
0.0
 11
-60.11212553146782
 21
224.4699615768876
 31
0.0
  0
LINE
  5
11D
330
1F
100
AcDbEntity
  8
0
  6
Continuous
 62
     7
100
AcDbLine
 10
-61.45562841572222
 20
224.4127346548777
 30
0.0
 11
-61.45562841572222
 21
224.0591812642844
 31
0.0
  0
LINE
  5
11E
330
1F
100
AcDbEntity
  8
0
  6
Continuous
 62
     7
100
AcDbLine
 10
-60.11212553146782
 20
224.1739959146427
 30
0.0
 11
-61.102075025129
 21
224.6689706614733
 31
0.0
  0
LINE
  5
11F
330
1F
100
AcDbEntity
  8
0
  6
Continuous
 62
     7
100
AcDbLine
 10
-58.98075468156932
 20
224.1640837730737
 30
0.0
 11
-58.62720129097612
 21
224.3408604683705
 31
0.0
  0
LINE
  5
120
330
1F
100
AcDbEntity
  8
0
  6
Continuous
 62
     7
100
AcDbLine
 10
-60.39496824394242
 20
223.9618638802866
 30
0.0
 11
-61.45562841572222
 21
224.4921939661766
 31
0.0
  0
LINE
  5
121
330
1F
100
AcDbEntity
  8
0
  6
Continuous
 62
     7
100
AcDbLine
 10
-60.11212553146782
 20
224.0369488749955
 30
0.0
 11
-58.98075468156932
 21
224.1640837730737
 31
0.0
  0
LINE
  5
122
330
1F
100
AcDbEntity
  8
0
  6
Continuous
 62
     7
100
AcDbLine
 10
-66.75892927462131
 20
224.1560567525698
 30
0.0
 11
-66.405375884028
 21
224.3328334478665
 31
0.0
  0
LINE
  5
123
330
1F
100
AcDbEntity
  8
0
  6
Continuous
 62
     7
100
AcDbLine
 10
-61.45562841572222
 20
224.0591812642844
 30
0.0
 11
-61.8091818063155
 21
224.235957959581
 31
0.0
  0
LINE
  5
124
330
1F
100
AcDbEntity
  8
0
  6
Continuous
 62
     7
100
AcDbLine
 10
-63.04661867339203
 20
225.9372081478498
 30
0.0
 11
-64.67017883408661
 21
226.7489882281972
 31
0.0
  0
LINE
  5
125
330
1F
100
AcDbEntity
  8
0
  6
Continuous
 62
     7
100
AcDbLine
 10
-55.26844408034003
 20
228.1872615038201
 30
0.0
 11
-55.26844408033991
 21
218.903469175251
 31
0.0
  0
LINE
  5
126
330
1F
100
AcDbEntity
  8
0
  6
Continuous
 62
     7
100
AcDbLine
 10
-58.27364790038282
 20
227.7076446995105
 30
0.0
 11
-58.27364790038282
 21
219.9134160654505
 31
0.0
  0
LINE
  5
127
330
1F
100
AcDbEntity
  8
0
  6
Continuous
 62
     7
100
AcDbLine
 10
-58.27364790038282
 20
219.9134160654505
 30
0.0
 11
-66.75892927462131
 21
224.1560567525698
 31
0.0
  0
LINE
  5
128
330
1F
100
AcDbEntity
  8
0
  6
Continuous
 62
     7
100
AcDbLine
 10
-58.27364790038282
 20
220.2669694560437
 30
0.0
 11
-66.405375884028
 21
224.3328334478665
 31
0.0
  0
LINE
  5
129
330
1F
100
AcDbEntity
  8
0
  6
Continuous
 62
     2
100
AcDbLine
 10
-67.8195894464012
 20
222.0883106271066
 30
0.0
 11
-56.85943433800971
 21
216.6082330729108
 31
0.0
  0
LINE
  5
12A
330
1F
100
AcDbEntity
  8
0
  6
Continuous
 62
     7
100
AcDbLine
 10
-79.81034444000458
 20
239.6433737545376
 30
0.0
 11
-96.89130965180978
 21
248.1838563604405
 31
0.0
  0
LINE
  5
12B
330
1F
100
AcDbEntity
  8
1
  6
Continuous
 62
     7
100
AcDbLine
 10
-102.0
 20
106.5264721473802
 30
0.0
 11
-104.2000000000001
 21
106.5264721473802
 31
0.0
  0
LINE
  5
12C
330
1F
100
AcDbEntity
  8
1
  6
Continuous
 62
     7
100
AcDbLine
 10
-98.93600000000004
 20
109.7714142510395
 30
0.0
 11
-100.0640000000001
 21
107.6815300437209
 31
0.0
  0
LINE
  5
12D
330
1F
100
AcDbEntity
  8
1
  6
Continuous
 62
     7
100
AcDbLine
 10
-93.93600000000004
 20
107.6815300437209
 30
0.0
 11
-95.06400000000002
 21
109.7714142510395
 31
0.0
  0
LINE
  5
12E
330
1F
100
AcDbEntity
  8
1
  6
Continuous
 62
     7
100
AcDbLine
 10
-89.79999999999995
 20
106.5264721473802
 30
0.0
 11
-92.00000000000006
 21
106.5264721473802
 31
0.0
  0
LINE
  5
12F
330
1F
100
AcDbEntity
  8
1
  6
Continuous
 62
     7
100
AcDbLine
 10
-92.00000000000006
 20
110.9264721473802
 30
0.0
 11
-89.79999999999995
 21
110.9264721473802
 31
0.0
  0
LINE
  5
130
330
1F
100
AcDbEntity
  8
1
  6
Continuous
 62
     7
100
AcDbLine
 10
-95.06400000000002
 20
107.6815300437209
 30
0.0
 11
-93.93600000000004
 21
109.7714142510395
 31
0.0
  0
LINE
  5
131
330
1F
100
AcDbEntity
  8
1
  6
Continuous
 62
     7
100
AcDbLine
 10
-100.0640000000001
 20
109.7714142510395
 30
0.0
 11
-98.93600000000004
 21
107.6815300437209
 31
0.0
  0
LINE
  5
132
330
1F
100
AcDbEntity
  8
0
  6
Continuous
 62
     7
100
AcDbLine
 10
-85.74999999999778
 20
160.9882730455082
 30
0.0
 11
-85.74999999999778
 21
167.5882730455083
 31
0.0
  0
LINE
  5
133
330
1F
100
AcDbEntity
  8
0
  6
Continuous
 62
     7
100
AcDbLine
 10
-49.74999999999778
 20
156.7882730455084
 30
0.0
 11
-49.74999999999778
 21
171.7882730455081
 31
0.0
  0
LINE
  5
134
330
1F
100
AcDbEntity
  8
0
  6
Continuous
 62
     7
100
AcDbLine
 10
-45.15999999999997
 20
160.0382730455082
 30
0.0
 11
-43.15999999999997
 21
160.0382730455082
 31
0.0
  0
LINE
  5
135
330
1F
100
AcDbEntity
  8
0
  6
Continuous
 62
     7
100
AcDbLine
 10
-45.15999999999997
 20
166.0382730455082
 30
0.0
 11
-43.15999999999997
 21
166.0382730455082
 31
0.0
  0
LINE
  5
136
330
1F
100
AcDbEntity
  8
0
  6
Continuous
 62
     7
100
AcDbLine
 10
-43.15999999999997
 20
162.5382730455082
 30
0.0
 11
-45.15999999999997
 21
162.5382730455082
 31
0.0
  0
LINE
  5
137
330
1F
100
AcDbEntity
  8
0
  6
Continuous
 62
     7
100
AcDbLine
 10
-38.0
 20
158.2882730455083
 30
0.0
 11
-38.0
 21
170.2882730455081
 31
0.0
  0
LINE
  5
138
330
1F
100
AcDbEntity
  8
0
  6
Continuous
 62
     7
100
AcDbLine
 10
-43.15999999999997
 20
160.0382730455082
 30
0.0
 11
-43.15999999999997
 21
162.5382730455082
 31
0.0
  0
LINE
  5
139
330
1F
100
AcDbEntity
  8
0
  6
Continuous
 62
     7
100
AcDbLine
 10
-43.15999999999997
 20
166.0382730455082
 30
0.0
 11
-43.15999999999997
 21
168.5382730455082
 31
0.0
  0
LINE
  5
13A
330
1F
100
AcDbEntity
  8
0
  6
Continuous
 62
     7
100
AcDbLine
 10
-85.74999999999778
 20
162.2882730455083
 30
0.0
 11
-94.9561928102263
 21
162.2882730455083
 31
0.0
  0
LINE
  5
13B
330
1F
100
AcDbEntity
  8
0
  6
Continuous
 62
     7
100
AcDbLine
 10
-43.15999999999997
 20
168.5382730455082
 30
0.0
 11
-45.15999999999997
 21
168.5382730455082
 31
0.0
  0
LINE
  5
13C
330
1F
100
AcDbEntity
  8
0
  6
Continuous
 62
     7
100
AcDbLine
 10
-74.74999999999778
 20
169.2882730455083
 30
0.0
 11
-76.24999999999778
 21
169.2882730455083
 31
0.0
  0
LINE
  5
13D
330
1F
100
AcDbEntity
  8
0
  6
Continuous
 62
     7
100
AcDbLine
 10
-76.74999999999778
 20
168.0882730455083
 30
0.0
 11
-85.24999999999778
 21
168.0882730455083
 31
0.0
  0
LINE
  5
13E
330
1F
100
AcDbEntity
  8
0
  6
Continuous
 62
     7
100
AcDbLine
 10
-85.74999999999778
 20
166.2882730455083
 30
0.0
 11
-94.9561928102263
 21
166.2882730455083
 31
0.0
  0
LINE
  5
13F
330
1F
100
AcDbEntity
  8
0
  6
Continuous
 62
     7
100
AcDbLine
 10
-68.74999999999784
 20
172.2882730455081
 30
0.0
 11
-50.24999999999778
 21
172.2882730455081
 31
0.0
  0
LINE
  5
140
330
1F
100
AcDbEntity
  8
0
  6
Continuous
 62
     7
100
AcDbLine
 10
-54.84999999999775
 20
163.4882730455082
 30
0.0
 11
-54.84999999999775
 21
163.9882730455082
 31
0.0
  0
LINE
  5
141
330
1F
100
AcDbEntity
  8
0
  6
Continuous
 62
     7
100
AcDbLine
 10
-55.24999999999778
 20
161.7382730455082
 30
0.0
 11
-55.24999999999778
 21
163.2382730455082
 31
0.0
  0
LINE
  5
142
330
1F
100
AcDbEntity
  8
0
  6
Continuous
 62
     7
100
AcDbLine
 10
-56.74999999999778
 20
163.2382730455082
 30
0.0
 11
-56.74999999999778
 21
162.7382730455082
 31
0.0
  0
LINE
  5
143
330
1F
100
AcDbEntity
  8
0
  6
Continuous
 62
     7
100
AcDbLine
 10
-56.74999999999778
 20
161.7382730455082
 30
0.0
 11
-55.24999999999778
 21
161.7382730455082
 31
0.0
  0
LINE
  5
144
330
1F
100
AcDbEntity
  8
0
  6
Continuous
 62
     7
100
AcDbLine
 10
-55.24999999999778
 20
163.2382730455082
 30
0.0
 11
-56.74999999999778
 21
163.2382730455082
 31
0.0
  0
LINE
  5
145
330
1F
100
AcDbEntity
  8
0
  6
Continuous
 62
     7
100
AcDbLine
 10
-56.74999999999778
 20
162.2382730455082
 30
0.0
 11
-57.24999999999778
 21
162.2382730455082
 31
0.0
  0
LINE
  5
146
330
1F
100
AcDbEntity
  8
0
  6
Continuous
 62
     7
100
AcDbLine
 10
-56.74999999999778
 20
162.2382730455082
 30
0.0
 11
-56.74999999999778
 21
161.7382730455082
 31
0.0
  0
LINE
  5
147
330
1F
100
AcDbEntity
  8
0
  6
Continuous
 62
     7
100
AcDbLine
 10
-56.74999999999778
 20
162.7382730455082
 30
0.0
 11
-57.24999999999778
 21
162.7382730455082
 31
0.0
  0
LINE
  5
148
330
1F
100
AcDbEntity
  8
0
  6
Continuous
 62
     7
100
AcDbLine
 10
-54.84999999999775
 20
163.9882730455082
 30
0.0
 11
-58.49999999999778
 21
163.9882730455082
 31
0.0
  0
LINE
  5
149
330
1F
100
AcDbEntity
  8
0
  6
Continuous
 62
     7
100
AcDbLine
 10
-60.49999999999778
 20
164.5882730455083
 30
0.0
 11
-61.29606079858081
 21
164.5882730455083
 31
0.0
  0
LINE
  5
14A
330
1F
100
AcDbEntity
  8
0
  6
Continuous
 62
     7
100
AcDbLine
 10
-54.84999999999775
 20
163.4882730455082
 30
0.0
 11
-53.24999999999778
 21
164.2882730455083
 31
0.0
  0
LINE
  5
14B
330
1F
100
AcDbEntity
  8
0
  6
Continuous
 62
     7
100
AcDbLine
 10
-58.99999999999778
 20
163.9882730455082
 30
0.0
 11
-61.29606079858081
 21
163.9882730455082
 31
0.0
  0
LINE
  5
14C
330
1F
100
AcDbEntity
  8
0
  6
Continuous
 62
     7
100
AcDbLine
 10
-58.40710678118433
 20
165.8382730455083
 30
0.0
 11
-58.74999999999778
 21
165.8382730455083
 31
0.0
  0
LINE
  5
14D
330
1F
100
AcDbEntity
  8
0
  6
Continuous
 62
     7
100
AcDbLine
 10
-54.84999999999775
 20
164.5882730455083
 30
0.0
 11
-54.84999999999775
 21
165.0882730455083
 31
0.0
  0
LINE
  5
14E
330
1F
100
AcDbEntity
  8
0
  6
Continuous
 62
     7
100
AcDbLine
 10
-53.24999999999778
 20
164.2882730455083
 30
0.0
 11
-54.84999999999775
 21
165.0882730455083
 31
0.0
  0
LINE
  5
14F
330
1F
100
AcDbEntity
  8
0
  6
Continuous
 62
     7
100
AcDbLine
 10
-54.84999999999775
 20
164.5882730455083
 30
0.0
 11
-59.99999999999778
 21
164.5882730455083
 31
0.0
  0
LINE
  5
150
330
1F
100
AcDbEntity
  8
0
  6
Continuous
 62
     7
100
AcDbLine
 10
-52.24999999999778
 20
159.7882730455083
 30
0.0
 11
-64.24999999999778
 21
159.7882730455083
 31
0.0
  0
LINE
  5
151
330
1F
100
AcDbEntity
  8
0
  6
Continuous
 62
     7
100
AcDbLine
 10
-52.24999999999778
 20
168.7882730455083
 30
0.0
 11
-52.24999999999778
 21
159.7882730455083
 31
0.0
  0
LINE
  5
152
330
1F
100
AcDbEntity
  8
0
  6
Continuous
 62
     7
100
AcDbLine
 10
-64.24999999999778
 20
159.7882730455083
 30
0.0
 11
-64.24999999999778
 21
168.7882730455083
 31
0.0
  0
LINE
  5
153
330
1F
100
AcDbEntity
  8
0
  6
Continuous
 62
     7
100
AcDbLine
 10
-45.15999999999997
 20
162.5382730455082
 30
0.0
 11
-45.15999999999997
 21
160.0382730455082
 31
0.0
  0
LINE
  5
154
330
1F
100
AcDbEntity
  8
0
  6
Continuous
 62
     7
100
AcDbLine
 10
-58.40710678118433
 20
166.3382730455083
 30
0.0
 11
-58.74999999999778
 21
166.3382730455083
 31
0.0
  0
LINE
  5
155
330
1F
100
AcDbEntity
  8
0
  6
Continuous
 62
     7
100
AcDbLine
 10
-45.15999999999997
 20
168.5382730455082
 30
0.0
 11
-45.15999999999997
 21
166.0382730455082
 31
0.0
  0
LINE
  5
156
330
1F
100
AcDbEntity
  8
0
  6
Continuous
 62
     7
100
AcDbLine
 10
-64.24999999999778
 20
168.7882730455083
 30
0.0
 11
-52.24999999999778
 21
168.7882730455083
 31
0.0
  0
LINE
  5
157
330
1F
100
AcDbEntity
  8
0
  6
Continuous
 62
     7
100
AcDbLine
 10
-68.74999999999784
 20
156.2882730455084
 30
0.0
 11
-50.24999999999778
 21
156.2882730455084
 31
0.0
  0
LINE
  5
158
330
1F
100
AcDbEntity
  8
0
  6
Continuous
 62
     7
100
AcDbLine
 10
-38.0
 20
158.2882730455083
 30
0.0
 11
-49.74999999999778
 21
158.2882730455083
 31
0.0
  0
LINE
  5
159
330
1F
100
AcDbEntity
  8
0
  6
Continuous
 62
     7
100
AcDbLine
 10
-49.74999999999778
 20
170.2882730455081
 30
0.0
 11
-38.0
 21
170.2882730455081
 31
0.0
  0
LINE
  5
15A
330
1F
100
AcDbEntity
  8
0
  6
Continuous
 62
     7
100
AcDbLine
 10
-85.24999999999778
 20
160.4882730455082
 30
0.0
 11
-85.24999999999778
 21
168.0882730455083
 31
0.0
  0
LINE
  5
15B
330
1F
100
AcDbEntity
  8
0
  6
Continuous
 62
     7
100
AcDbLine
 10
-76.74999999999778
 20
162.8084081868134
 30
0.0
 11
-76.74999999999778
 21
159.7882730455083
 31
0.0
  0
LINE
  5
15C
330
1F
100
AcDbEntity
  8
0
  6
Continuous
 62
     7
100
AcDbLine
 10
-76.74999999999778
 20
168.7882730455083
 30
0.0
 11
-76.74999999999778
 21
165.7681379041468
 31
0.0
  0
LINE
  5
15D
330
1F
100
AcDbEntity
  8
0
  6
Continuous
 62
     7
100
AcDbLine
 10
-76.24999999999778
 20
159.2882730455083
 30
0.0
 11
-74.74999999999778
 21
159.2882730455083
 31
0.0
  0
LINE
  5
15E
330
1F
100
AcDbEntity
  8
0
  6
Continuous
 62
     7
100
AcDbLine
 10
-76.74999999999778
 20
160.4882730455082
 30
0.0
 11
-85.24999999999778
 21
160.4882730455082
 31
0.0
  0
LINE
  5
15F
330
1F
100
AcDbEntity
  8
0
  6
Continuous
 62
     7
100
AcDbLine
 10
-117.2500000000022
 20
168.0882730455083
 30
0.0
 11
-108.7500000000022
 21
168.0882730455083
 31
0.0
  0
LINE
  5
160
330
1F
100
AcDbEntity
  8
0
  6
Continuous
 62
     7
100
AcDbLine
 10
-117.7500000000022
 20
169.2882730455083
 30
0.0
 11
-119.2500000000022
 21
169.2882730455083
 31
0.0
  0
LINE
  5
161
330
1F
100
AcDbEntity
  8
0
  6
Continuous
 62
     7
100
AcDbLine
 10
-117.2500000000022
 20
159.7882730455083
 30
0.0
 11
-117.2500000000022
 21
162.8084081868697
 31
0.0
  0
LINE
  5
162
330
1F
100
AcDbEntity
  8
0
  6
Continuous
 62
     7
100
AcDbLine
 10
-117.2500000000022
 20
165.7681379042031
 30
0.0
 11
-117.2500000000022
 21
168.7882730455083
 31
0.0
  0
LINE
  5
163
330
1F
100
AcDbEntity
  8
0
  6
Continuous
 62
     7
100
AcDbLine
 10
-108.7500000000022
 20
168.0882730455083
 30
0.0
 11
-108.7500000000022
 21
160.4882730455082
 31
0.0
  0
LINE
  5
164
330
1F
100
AcDbEntity
  8
0
  6
Continuous
 62
     7
100
AcDbLine
 10
-144.2500000000022
 20
158.2882730455084
 30
0.0
 11
-156.0
 21
158.2882730455084
 31
0.0
  0
LINE
  5
165
330
1F
100
AcDbEntity
  8
0
  6
Continuous
 62
     7
100
AcDbLine
 10
-156.0
 20
170.2882730455083
 30
0.0
 11
-144.2500000000022
 21
170.2882730455083
 31
0.0
  0
LINE
  5
166
330
1F
100
AcDbEntity
  8
0
  6
Continuous
 62
     7
100
AcDbLine
 10
-144.2500000000022
 20
171.7882730455081
 30
0.0
 11
-144.2500000000022
 21
156.7882730455084
 31
0.0
  0
LINE
  5
167
330
1F
100
AcDbEntity
  8
0
  6
Continuous
 62
     7
100
AcDbLine
 10
-125.2500000000021
 20
172.2882730455081
 30
0.0
 11
-143.7500000000022
 21
172.2882730455081
 31
0.0
  0
LINE
  5
168
330
1F
100
AcDbEntity
  8
0
  6
Continuous
 62
     7
100
AcDbLine
 10
-129.7500000000022
 20
159.7882730455083
 30
0.0
 11
-141.7500000000022
 21
159.7882730455083
 31
0.0
  0
LINE
  5
169
330
1F
100
AcDbEntity
  8
0
  6
Continuous
 62
     7
100
AcDbLine
 10
-148.84
 20
160.0382730455083
 30
0.0
 11
-148.84
 21
162.5382730455083
 31
0.0
  0
LINE
  5
16A
330
1F
100
AcDbEntity
  8
0
  6
Continuous
 62
     7
100
AcDbLine
 10
-135.5928932188157
 20
162.2382730455082
 30
0.0
 11
-135.2500000000022
 21
162.2382730455082
 31
0.0
  0
LINE
  5
16B
330
1F
100
AcDbEntity
  8
0
  6
Continuous
 62
     7
100
AcDbLine
 10
-148.84
 20
166.0382730455083
 30
0.0
 11
-148.84
 21
168.5382730455083
 31
0.0
  0
LINE
  5
16C
330
1F
100
AcDbEntity
  8
0
  6
Continuous
 62
     7
100
AcDbLine
 10
-129.7500000000022
 20
168.7882730455083
 30
0.0
 11
-129.7500000000022
 21
159.7882730455083
 31
0.0
  0
LINE
  5
16D
330
1F
100
AcDbEntity
  8
0
  6
Continuous
 62
     7
100
AcDbLine
 10
-141.7500000000022
 20
159.7882730455083
 30
0.0
 11
-141.7500000000022
 21
168.7882730455083
 31
0.0
  0
LINE
  5
16E
330
1F
100
AcDbEntity
  8
0
  6
Continuous
 62
     7
100
AcDbLine
 10
-141.7500000000022
 20
168.7882730455083
 30
0.0
 11
-129.7500000000022
 21
168.7882730455083
 31
0.0
  0
LINE
  5
16F
330
1F
100
AcDbEntity
  8
0
  6
Continuous
 62
     7
100
AcDbLine
 10
-139.1500000000022
 20
163.9882730455082
 30
0.0
 11
-134.0000000000022
 21
163.9882730455082
 31
0.0
  0
LINE
  5
170
330
1F
100
AcDbEntity
  8
0
  6
Continuous
 62
     7
100
AcDbLine
 10
-140.7500000000022
 20
164.2882730455083
 30
0.0
 11
-139.1500000000022
 21
163.4882730455082
 31
0.0
  0
LINE
  5
171
330
1F
100
AcDbEntity
  8
0
  6
Continuous
 62
     7
100
AcDbLine
 10
-139.1500000000022
 20
163.9882730455082
 30
0.0
 11
-139.1500000000022
 21
163.4882730455082
 31
0.0
  0
LINE
  5
172
330
1F
100
AcDbEntity
  8
0
  6
Continuous
 62
     7
100
AcDbLine
 10
-135.5928932188157
 20
162.7382730455082
 30
0.0
 11
-135.2500000000022
 21
162.7382730455082
 31
0.0
  0
LINE
  5
173
330
1F
100
AcDbEntity
  8
0
  6
Continuous
 62
     7
100
AcDbLine
 10
-135.0000000000022
 20
164.5882730455083
 30
0.0
 11
-132.7039392014191
 21
164.5882730455083
 31
0.0
  0
LINE
  5
174
330
1F
100
AcDbEntity
  8
0
  6
Continuous
 62
     7
100
AcDbLine
 10
-139.1500000000022
 20
165.0882730455083
 30
0.0
 11
-140.7500000000022
 21
164.2882730455083
 31
0.0
  0
LINE
  5
175
330
1F
100
AcDbEntity
  8
0
  6
Continuous
 62
     7
100
AcDbLine
 10
-133.5000000000022
 20
163.9882730455082
 30
0.0
 11
-132.7039392014191
 21
163.9882730455082
 31
0.0
  0
LINE
  5
176
330
1F
100
AcDbEntity
  8
0
  6
Continuous
 62
     7
100
AcDbLine
 10
-139.1500000000022
 20
164.5882730455083
 30
0.0
 11
-135.5000000000022
 21
164.5882730455083
 31
0.0
  0
LINE
  5
177
330
1F
100
AcDbEntity
  8
0
  6
Continuous
 62
     7
100
AcDbLine
 10
-137.2500000000022
 20
165.8382730455083
 30
0.0
 11
-136.7500000000022
 21
165.8382730455083
 31
0.0
  0
LINE
  5
178
330
1F
100
AcDbEntity
  8
0
  6
Continuous
 62
     7
100
AcDbLine
 10
-137.2500000000022
 20
166.3382730455083
 30
0.0
 11
-137.2500000000022
 21
166.8382730455083
 31
0.0
  0
LINE
  5
179
330
1F
100
AcDbEntity
  8
0
  6
Continuous
 62
     7
100
AcDbLine
 10
-137.2500000000022
 20
166.3382730455083
 30
0.0
 11
-136.7500000000022
 21
166.3382730455083
 31
0.0
  0
LINE
  5
17A
330
1F
100
AcDbEntity
  8
0
  6
Continuous
 62
     7
100
AcDbLine
 10
-138.7500000000022
 20
165.3382730455083
 30
0.0
 11
-137.2500000000022
 21
165.3382730455083
 31
0.0
  0
LINE
  5
17B
330
1F
100
AcDbEntity
  8
0
  6
Continuous
 62
     7
100
AcDbLine
 10
-137.2500000000022
 20
166.8382730455083
 30
0.0
 11
-138.7500000000022
 21
166.8382730455083
 31
0.0
  0
LINE
  5
17C
330
1F
100
AcDbEntity
  8
0
  6
Continuous
 62
     7
100
AcDbLine
 10
-137.2500000000022
 20
165.3382730455083
 30
0.0
 11
-137.2500000000022
 21
165.8382730455083
 31
0.0
  0
LINE
  5
17D
330
1F
100
AcDbEntity
  8
0
  6
Continuous
 62
     7
100
AcDbLine
 10
-138.7500000000022
 20
166.8382730455083
 30
0.0
 11
-138.7500000000022
 21
165.3382730455083
 31
0.0
  0
LINE
  5
17E
330
1F
100
AcDbEntity
  8
0
  6
Continuous
 62
     7
100
AcDbLine
 10
-139.1500000000022
 20
165.0882730455083
 30
0.0
 11
-139.1500000000022
 21
164.5882730455083
 31
0.0
  0
LINE
  5
17F
330
1F
100
AcDbEntity
  8
0
  6
Continuous
 62
     7
100
AcDbLine
 10
-125.2500000000021
 20
156.2882730455084
 30
0.0
 11
-143.7500000000022
 21
156.2882730455084
 31
0.0
  0
LINE
  5
180
330
1F
100
AcDbEntity
  8
0
  6
Continuous
 62
     7
100
AcDbLine
 10
-108.2500000000022
 20
162.2882730455083
 30
0.0
 11
-98.68139953817683
 21
162.2882730455083
 31
0.0
  0
LINE
  5
181
330
1F
100
AcDbEntity
  8
0
  6
Continuous
 62
     7
100
AcDbLine
 10
-117.2500000000022
 20
160.4882730455082
 30
0.0
 11
-108.7500000000022
 21
160.4882730455082
 31
0.0
  0
LINE
  5
182
330
1F
100
AcDbEntity
  8
0
  6
Continuous
 62
     7
100
AcDbLine
 10
-119.2500000000022
 20
159.2882730455083
 30
0.0
 11
-117.7500000000022
 21
159.2882730455083
 31
0.0
  0
LINE
  5
183
330
1F
100
AcDbEntity
  8
0
  6
Continuous
 62
     7
100
AcDbLine
 10
-150.84
 20
160.0382730455083
 30
0.0
 11
-148.84
 21
160.0382730455083
 31
0.0
  0
LINE
  5
184
330
1F
100
AcDbEntity
  8
0
  6
Continuous
 62
     7
100
AcDbLine
 10
-108.2500000000022
 20
167.5882730455083
 30
0.0
 11
-108.2500000000022
 21
160.9882730455082
 31
0.0
  0
LINE
  5
185
330
1F
100
AcDbEntity
  8
0
  6
Continuous
 62
     7
100
AcDbLine
 10
-108.2500000000022
 20
166.2882730455083
 30
0.0
 11
-98.68139953817683
 21
166.2882730455083
 31
0.0
  0
LINE
  5
186
330
1F
100
AcDbEntity
  8
0
  6
Continuous
 62
     7
100
AcDbLine
 10
-150.84
 20
162.5382730455083
 30
0.0
 11
-150.84
 21
160.0382730455083
 31
0.0
  0
LINE
  5
187
330
1F
100
AcDbEntity
  8
0
  6
Continuous
 62
     7
100
AcDbLine
 10
-150.84
 20
168.5382730455083
 30
0.0
 11
-150.84
 21
166.0382730455083
 31
0.0
  0
LINE
  5
188
330
1F
100
AcDbEntity
  8
0
  6
Continuous
 62
     7
100
AcDbLine
 10
-156.0
 20
170.2882730455083
 30
0.0
 11
-156.0
 21
158.2882730455084
 31
0.0
  0
LINE
  5
189
330
1F
100
AcDbEntity
  8
0
  6
Continuous
 62
     7
100
AcDbLine
 10
-150.84
 20
166.0382730455083
 30
0.0
 11
-148.84
 21
166.0382730455083
 31
0.0
  0
LINE
  5
18A
330
1F
100
AcDbEntity
  8
0
  6
Continuous
 62
     7
100
AcDbLine
 10
-148.84
 20
162.5382730455083
 30
0.0
 11
-150.84
 21
162.5382730455083
 31
0.0
  0
LINE
  5
18B
330
1F
100
AcDbEntity
  8
0
  6
Continuous
 62
     7
100
AcDbLine
 10
-148.84
 20
168.5382730455083
 30
0.0
 11
-150.84
 21
168.5382730455083
 31
0.0
  0
LINE
  5
18C
330
1F
100
AcDbEntity
  8
0
  6
Continuous
 62
     7
100
AcDbLine
 10
-174.3961775799808
 20
156.7882730455084
 30
0.0
 11
-174.3961775799808
 21
171.7882730455081
 31
0.0
  0
LINE
  5
18D
330
1F
100
AcDbEntity
  8
0
  6
Continuous
 62
     7
100
AcDbLine
 10
-172.2961775799809
 20
169.9382730455071
 30
0.0
 11
-172.2961775799806
 21
158.6382730455088
 31
0.0
  0
LINE
  5
18E
330
1F
100
AcDbEntity
  8
0
  6
Continuous
 62
     7
100
AcDbLine
 10
-172.6461775799807
 20
158.2882730455082
 30
0.0
 11
-172.6461775799809
 21
170.2882730455082
 31
0.0
  0
LINE
  5
18F
330
1F
100
AcDbEntity
  8
0
  6
Continuous
 62
     7
100
AcDbLine
 10
-173.8961775799808
 20
172.2882730455081
 30
0.0
 11
-166.8961775799808
 21
172.2882730455081
 31
0.0
  0
LINE
  5
190
330
1F
100
AcDbEntity
  8
0
  6
Continuous
 62
     7
100
AcDbLine
 10
-172.6461775799809
 20
170.2882730455082
 30
0.0
 11
-168.1461775799808
 21
170.2882730455082
 31
0.0
  0
LINE
  5
191
330
1F
100
AcDbEntity
  8
0
  6
Continuous
 62
     7
100
AcDbLine
 10
-168.4961775799807
 20
158.6382730455088
 30
0.0
 11
-168.4961775799807
 21
169.9382730455071
 31
0.0
  0
LINE
  5
192
330
1F
100
AcDbEntity
  8
0
  6
Continuous
 62
     7
100
AcDbLine
 10
-172.2961775799806
 20
158.6382730455088
 30
0.0
 11
-168.4961775799807
 21
158.6382730455088
 31
0.0
  0
LINE
  5
193
102
{ACAD_REACTORS
330
312
102
}
330
1F
100
AcDbEntity
  8
0
  6
Continuous
 62
     7
100
AcDbLine
 10
-170.2961775799809
 20
169.8382730455074
 30
0.0
 11
-168.5961775799807
 21
169.8382730455074
 31
0.0
  0
LINE
  5
194
330
1F
100
AcDbEntity
  8
0
  6
Continuous
 62
     7
100
AcDbLine
 10
-168.4961775799807
 20
169.9382730455071
 30
0.0
 11
-172.2961775799809
 21
169.9382730455071
 31
0.0
  0
LINE
  5
195
102
{ACAD_REACTORS
330
312
102
}
330
1F
100
AcDbEntity
  8
0
  6
Continuous
 62
     7
100
AcDbLine
 10
-168.5961775799807
 20
158.7382730455088
 30
0.0
 11
-170.2961775799809
 21
158.7382730455088
 31
0.0
  0
LINE
  5
196
102
{ACAD_REACTORS
330
312
102
}
330
1F
100
AcDbEntity
  8
0
  6
Continuous
 62
     7
100
AcDbLine
 10
-170.2961775799809
 20
158.7382730455088
 30
0.0
 11
-170.2961775799809
 21
169.8382730455074
 31
0.0
  0
LINE
  5
197
330
1F
100
AcDbEntity
  8
0
  6
Continuous
 62
     7
100
AcDbLine
 10
-168.1461775799808
 20
170.2882730455082
 30
0.0
 11
-168.1461775799807
 21
158.2882730455083
 31
0.0
  0
LINE
  5
198
330
1F
100
AcDbEntity
  8
0
  6
Continuous
 62
     7
100
AcDbLine
 10
-166.3961775799808
 20
171.7882730455081
 30
0.0
 11
-166.3961775799808
 21
156.7882730455084
 31
0.0
  0
LINE
  5
199
102
{ACAD_REACTORS
330
312
102
}
330
1F
100
AcDbEntity
  8
0
  6
Continuous
 62
     7
100
AcDbLine
 10
-168.5961775799807
 20
169.8382730455074
 30
0.0
 11
-168.5961775799807
 21
158.7382730455088
 31
0.0
  0
LINE
  5
19A
330
1F
100
AcDbEntity
  8
0
  6
Continuous
 62
     7
100
AcDbLine
 10
-168.1461775799807
 20
158.2882730455083
 30
0.0
 11
-172.6461775799807
 21
158.2882730455082
 31
0.0
  0
LINE
  5
19B
330
1F
100
AcDbEntity
  8
0
  6
Continuous
 62
     7
100
AcDbLine
 10
-166.8961775799808
 20
156.2882730455084
 30
0.0
 11
-173.8961775799808
 21
156.2882730455084
 31
0.0
  0
LINE
  5
19C
330
1F
100
AcDbEntity
  8
0
  6
Continuous
 62
     7
100
AcDbLine
 10
-20.10382242001921
 20
156.2882730455084
 30
0.0
 11
-27.10382242001921
 21
156.2882730455084
 31
0.0
  0
LINE
  5
19D
330
1F
100
AcDbEntity
  8
0
  6
Continuous
 62
     7
100
AcDbLine
 10
-21.35382242001927
 20
158.2882730455082
 30
0.0
 11
-25.85382242001927
 21
158.2882730455083
 31
0.0
  0
LINE
  5
19E
102
{ACAD_REACTORS
330
313
102
}
330
1F
100
AcDbEntity
  8
0
  6
Continuous
 62
     7
100
AcDbLine
 10
-25.40382242001928
 20
158.7382730455088
 30
0.0
 11
-25.40382242001928
 21
169.8382730455074
 31
0.0
  0
LINE
  5
19F
330
1F
100
AcDbEntity
  8
0
  6
Continuous
 62
     7
100
AcDbLine
 10
-27.60382242001919
 20
156.7882730455084
 30
0.0
 11
-27.60382242001919
 21
171.7882730455081
 31
0.0
  0
LINE
  5
1A0
330
1F
100
AcDbEntity
  8
0
  6
Continuous
 62
     7
100
AcDbLine
 10
-25.85382242001927
 20
158.2882730455083
 30
0.0
 11
-25.85382242001919
 21
170.2882730455082
 31
0.0
  0
LINE
  5
1A1
102
{ACAD_REACTORS
330
313
102
}
330
1F
100
AcDbEntity
  8
0
  6
Continuous
 62
     7
100
AcDbLine
 10
-23.70382242001909
 20
169.8382730455074
 30
0.0
 11
-23.70382242001909
 21
158.7382730455088
 31
0.0
  0
LINE
  5
1A2
102
{ACAD_REACTORS
330
313
102
}
330
1F
100
AcDbEntity
  8
0
  6
Continuous
 62
     7
100
AcDbLine
 10
-23.70382242001909
 20
158.7382730455088
 30
0.0
 11
-25.40382242001928
 21
158.7382730455088
 31
0.0
  0
LINE
  5
1A3
330
1F
100
AcDbEntity
  8
0
  6
Continuous
 62
     7
100
AcDbLine
 10
-21.70382242001909
 20
169.9382730455071
 30
0.0
 11
-25.50382242001928
 21
169.9382730455071
 31
0.0
  0
LINE
  5
1A4
102
{ACAD_REACTORS
330
313
102
}
330
1F
100
AcDbEntity
  8
0
  6
Continuous
 62
     7
100
AcDbLine
 10
-25.40382242001928
 20
169.8382730455074
 30
0.0
 11
-23.70382242001909
 21
169.8382730455074
 31
0.0
  0
LINE
  5
1A5
330
1F
100
AcDbEntity
  8
0
  6
Continuous
 62
     7
100
AcDbLine
 10
-25.50382242001928
 20
158.6382730455088
 30
0.0
 11
-21.70382242001938
 21
158.6382730455088
 31
0.0
  0
LINE
  5
1A6
330
1F
100
AcDbEntity
  8
0
  6
Continuous
 62
     7
100
AcDbLine
 10
-25.50382242001928
 20
169.9382730455071
 30
0.0
 11
-25.50382242001928
 21
158.6382730455088
 31
0.0
  0
LINE
  5
1A7
330
1F
100
AcDbEntity
  8
0
  6
Continuous
 62
     7
100
AcDbLine
 10
-25.85382242001919
 20
170.2882730455082
 30
0.0
 11
-21.35382242001907
 21
170.2882730455082
 31
0.0
  0
LINE
  5
1A8
330
1F
100
AcDbEntity
  8
0
  6
Continuous
 62
     7
100
AcDbLine
 10
-27.10382242001921
 20
172.2882730455081
 30
0.0
 11
-20.10382242001921
 21
172.2882730455081
 31
0.0
  0
LINE
  5
1A9
330
1F
100
AcDbEntity
  8
0
  6
Continuous
 62
     7
100
AcDbLine
 10
-21.35382242001907
 20
170.2882730455082
 30
0.0
 11
-21.35382242001927
 21
158.2882730455082
 31
0.0
  0
LINE
  5
1AA
330
1F
100
AcDbEntity
  8
0
  6
Continuous
 62
     7
100
AcDbLine
 10
-21.70382242001938
 20
158.6382730455088
 30
0.0
 11
-21.70382242001909
 21
169.9382730455071
 31
0.0
  0
LINE
  5
1AB
330
1F
100
AcDbEntity
  8
0
  6
Continuous
 62
     7
100
AcDbLine
 10
-19.60382242001921
 20
171.7882730455081
 30
0.0
 11
-19.60382242001921
 21
156.7882730455084
 31
0.0
  0
LINE
  5
1AC
330
1F
100
AcDbEntity
  8
1
  6
Continuous
 62
     7
100
AcDbLine
 10
-104.2000000000001
 20
115.3264721473802
 30
0.0
 11
-89.79999999999995
 21
115.3264721473802
 31
0.0
  0
LINE
  5
1AD
330
1F
100
AcDbEntity
  8
1
  6
Continuous
 62
     7
100
AcDbLine
 10
-104.2000000000001
 20
110.9264721473802
 30
0.0
 11
-102.0
 21
110.9264721473802
 31
0.0
  0
LINE
  5
1AE
330
1F
100
AcDbEntity
  8
1
  6
Continuous
 62
     7
100
AcDbLine
 10
-104.2000000000001
 20
102.1264721473802
 30
0.0
 11
-89.79999999999995
 21
102.1264721473802
 31
0.0
  0
LINE
  5
1AF
330
1F
100
AcDbEntity
  8
1
  6
Continuous
 62
     7
100
AcDbLine
 10
-104.2000000000001
 20
97.7264721473802
 30
0.0
 11
-89.79999999999995
 21
97.7264721473802
 31
0.0
  0
LINE
  5
1B0
330
1F
100
AcDbEntity
  8
1
  6
Continuous
 62
     7
100
AcDbLine
 10
-118.0
 20
93.3264721473802
 30
0.0
 11
-118.0
 21
119.7264721473802
 31
0.0
  0
LINE
  5
1B1
330
1F
100
AcDbEntity
  8
1
  6
Continuous
 62
     7
100
AcDbLine
 10
-76.0
 20
93.3264721473802
 30
0.0
 11
-118.0
 21
93.3264721473802
 31
0.0
  0
LINE
  5
1B2
330
1F
100
AcDbEntity
  8
1
  6
Continuous
 62
     7
100
AcDbLine
 10
-76.0
 20
119.7264721473802
 30
0.0
 11
-76.0
 21
93.3264721473802
 31
0.0
  0
LINE
  5
1B3
330
1F
100
AcDbEntity
  8
1
  6
Continuous
 62
     7
100
AcDbLine
 10
-118.0
 20
119.7264721473802
 30
0.0
 11
-76.0
 21
119.7264721473802
 31
0.0
  0
LINE
  5
1B4
330
1F
100
AcDbEntity
  8
1
  6
Continuous
 62
     7
100
AcDbLine
 10
-189.0
 20
20.0
 30
0.0
 11
-5.0
 21
20.0
 31
0.0
  0
LINE
  5
1B5
330
1F
100
AcDbEntity
  8
1
  6
Continuous
 62
     7
100
AcDbLine
 10
-189.0
 20
4.99999999999989
 30
0.0
 11
-5.0
 21
4.99999999999989
 31
0.0
  0
LINE
  5
1B6
330
1F
100
AcDbEntity
  8
1
  6
Continuous
 62
     7
100
AcDbLine
 10
-163.9999999999999
 20
35.0
 30
0.0
 11
-163.9999999999999
 21
40.0
 31
0.0
  0
LINE
  5
1B7
330
1F
100
AcDbEntity
  8
1
  6
Continuous
 62
     7
100
AcDbLine
 10
-182.0
 20
35.0
 30
0.0
 11
-182.0
 21
40.0
 31
0.0
  0
LINE
  5
1B8
330
1F
100
AcDbEntity
  8
1
  6
Continuous
 62
     7
100
AcDbLine
 10
-189.0
 20
40.0
 30
0.0
 11
-5.0
 21
40.0
 31
0.0
  0
LINE
  5
1B9
330
1F
100
AcDbEntity
  8
1
  6
Continuous
 62
     7
100
AcDbLine
 10
-163.9999999999999
 20
30.0
 30
0.0
 11
-163.9999999999999
 21
35.0
 31
0.0
  0
LINE
  5
1BA
330
1F
100
AcDbEntity
  8
1
  6
Continuous
 62
     7
100
AcDbLine
 10
-182.0
 20
30.0
 30
0.0
 11
-182.0
 21
35.0
 31
0.0
  0
LINE
  5
1BB
330
1F
100
AcDbEntity
  8
1
  6
Continuous
 62
     7
100
AcDbLine
 10
-189.0
 20
35.0
 30
0.0
 11
-5.0
 21
35.0
 31
0.0
  0
LINE
  5
1BC
330
1F
100
AcDbEntity
  8
1
  6
Continuous
 62
     7
100
AcDbLine
 10
-163.9999999999999
 20
25.0
 30
0.0
 11
-163.9999999999999
 21
30.0
 31
0.0
  0
LINE
  5
1BD
330
1F
100
AcDbEntity
  8
1
  6
Continuous
 62
     7
100
AcDbLine
 10
-182.0
 20
25.0
 30
0.0
 11
-182.0
 21
30.0
 31
0.0
  0
LINE
  5
1BE
330
1F
100
AcDbEntity
  8
1
  6
Continuous
 62
     7
100
AcDbLine
 10
-189.0
 20
30.0
 30
0.0
 11
-5.0
 21
30.0
 31
0.0
  0
LINE
  5
1BF
330
1F
100
AcDbEntity
  8
1
  6
Continuous
 62
     7
100
AcDbLine
 10
-163.9999999999999
 20
20.0
 30
0.0
 11
-163.9999999999999
 21
25.0
 31
0.0
  0
LINE
  5
1C0
330
1F
100
AcDbEntity
  8
1
  6
Continuous
 62
     7
100
AcDbLine
 10
-182.0
 20
20.0
 30
0.0
 11
-182.0
 21
25.0
 31
0.0
  0
LINE
  5
1C1
330
1F
100
AcDbEntity
  8
1
  6
Continuous
 62
     7
100
AcDbLine
 10
-189.0
 20
25.0
 30
0.0
 11
-5.0
 21
25.0
 31
0.0
  0
LINE
  5
1C2
102
{ACAD_REACTORS
330
314
102
}
330
1F
100
AcDbEntity
  8
1
  6
Continuous
 62
     7
100
AcDbLine
 10
-14.15712516009418
 20
10.55800208038028
 30
0.0
 11
-15.4904584934275
 21
9.78877131114967
 31
0.0
  0
LINE
  5
1C3
102
{ACAD_REACTORS
330
314
102
}
330
1F
100
AcDbEntity
  8
1
  6
Continuous
 62
     7
100
AcDbLine
 10
-15.32369931125729
 20
10.654636532648
 30
0.0
 11
-14.4902734624205
 21
11.13545913774618
 31
0.0
  0
LINE
  5
1C4
102
{ACAD_REACTORS
330
314
102
}
330
1F
100
AcDbEntity
  8
1
  6
Continuous
 62
     7
100
AcDbLine
 10
-15.32369931125729
 20
12.16666666666657
 30
0.0
 11
-15.32369931125729
 21
10.654636532648
 31
0.0
  0
LINE
  5
1C5
102
{ACAD_REACTORS
330
314
102
}
330
1F
100
AcDbEntity
  8
1
  6
Continuous
 62
     7
100
AcDbLine
 10
-14.32369931125729
 20
12.16666666666657
 30
0.0
 11
-15.32369931125729
 21
12.16666666666657
 31
0.0
  0
LINE
  5
1C6
102
{ACAD_REACTORS
330
314
102
}
330
1F
100
AcDbEntity
  8
1
  6
Continuous
 62
     7
100
AcDbLine
 10
-15.32369931125729
 20
12.83333333333326
 30
0.0
 11
-14.32369931125729
 21
12.83333333333326
 31
0.0
  0
LINE
  5
1C7
102
{ACAD_REACTORS
330
314
102
}
330
1F
100
AcDbEntity
  8
1
  6
Continuous
 62
     7
100
AcDbLine
 10
-15.32369931125729
 20
14.345363467352
 30
0.0
 11
-15.32369931125729
 21
12.83333333333326
 31
0.0
  0
LINE
  5
1C8
102
{ACAD_REACTORS
330
314
102
}
330
1F
100
AcDbEntity
  8
1
  6
Continuous
 62
     7
100
AcDbLine
 10
-14.4902734624205
 20
13.86454086225376
 30
0.0
 11
-15.32369931125729
 21
14.345363467352
 31
0.0
  0
LINE
  5
1C9
102
{ACAD_REACTORS
330
314
102
}
330
1F
100
AcDbEntity
  8
1
  6
Continuous
 62
     7
100
AcDbLine
 10
-15.4904584934275
 20
15.21122868885027
 30
0.0
 11
-14.15712516009418
 21
14.44199791961938
 31
0.0
  0
LINE
  5
1CA
102
{ACAD_REACTORS
330
315
102
}
330
1F
100
AcDbEntity
  8
1
  6
Continuous
 62
     7
100
AcDbLine
 10
-22.65703264459069
 20
10.84673060906317
 30
0.0
 11
-22.65703264459069
 21
14.15326939093666
 31
0.0
  0
LINE
  5
1CB
102
{ACAD_REACTORS
330
315
102
}
330
1F
100
AcDbEntity
  8
1
  6
Continuous
 62
     7
100
AcDbLine
 10
-21.99036597792409
 20
11.0392519172633
 30
0.0
 11
-21.99036597792409
 21
10.84673060906317
 31
0.0
  0
LINE
  5
1CC
102
{ACAD_REACTORS
330
315
102
}
330
1F
100
AcDbEntity
  8
1
  6
Continuous
 62
     7
100
AcDbLine
 10
-21.99036597792409
 20
14.15326939093666
 30
0.0
 11
-21.99036597792409
 21
11.0392519172633
 31
0.0
  0
LINE
  5
1CD
102
{ACAD_REACTORS
330
316
102
}
330
1F
100
AcDbEntity
  8
1
  6
Continuous
 62
     7
100
AcDbLine
 10
-18.8236067957539
 20
8.44261746499581
 30
0.0
 11
-20.99018094691701
 21
9.69256409066691
 31
0.0
  0
LINE
  5
1CE
102
{ACAD_REACTORS
330
316
102
}
330
1F
100
AcDbEntity
  8
1
  6
Continuous
 62
     7
100
AcDbLine
 10
-20.65703264459069
 20
10.2700211480327
 30
0.0
 11
-18.4904584934275
 21
9.0200745223616
 31
0.0
  0
LINE
  5
1CF
102
{ACAD_REACTORS
330
316
102
}
330
1F
100
AcDbEntity
  8
1
  6
Continuous
 62
     7
100
AcDbLine
 10
-20.65703264459069
 20
14.92250016016737
 30
0.0
 11
-20.65703264459069
 21
10.2700211480327
 31
0.0
  0
LINE
  5
1D0
102
{ACAD_REACTORS
330
316
102
}
330
1F
100
AcDbEntity
  8
1
  6
Continuous
 62
     7
100
AcDbLine
 10
-21.32369931125729
 20
10.27002114803258
 30
0.0
 11
-21.32369931125729
 21
14.92250016016737
 31
0.0
  0
LINE
  5
1D1
102
{ACAD_REACTORS
330
317
102
}
330
1F
100
AcDbEntity
  8
1
  6
Continuous
 62
     7
100
AcDbLine
 10
-17.15146632821399
 20
15.86370041827229
 30
0.0
 11
-18.32369931125729
 21
13.83333333333326
 31
0.0
  0
LINE
  5
1D2
102
{ACAD_REACTORS
330
317
102
}
330
1F
100
AcDbEntity
  8
1
  6
Continuous
 62
     7
100
AcDbLine
 10
-16.65703264459069
 20
9.3082690706018
 30
0.0
 11
-16.65703264459069
 21
15.73121731203457
 31
0.0
  0
LINE
  5
1D3
102
{ACAD_REACTORS
330
317
102
}
330
1F
100
AcDbEntity
  8
1
  6
Continuous
 62
     7
100
AcDbLine
 10
-17.32369931125729
 20
12.5
 30
0.0
 11
-17.32369931125729
 21
9.3082690706018
 31
0.0
  0
LINE
  5
1D4
102
{ACAD_REACTORS
330
317
102
}
330
1F
100
AcDbEntity
  8
1
  6
Continuous
 62
     7
100
AcDbLine
 10
-19.32369931125729
 20
10.84758507263291
 30
0.0
 11
-19.32369931125729
 21
12.5
 31
0.0
  0
LINE
  5
1D5
102
{ACAD_REACTORS
330
317
102
}
330
1F
100
AcDbEntity
  8
1
  6
Continuous
 62
     7
100
AcDbLine
 10
-19.99036597792409
 20
12.5
 30
0.0
 11
-19.99036597792409
 21
10.84758507263291
 31
0.0
  0
LINE
  5
1D6
102
{ACAD_REACTORS
330
317
102
}
330
1F
100
AcDbEntity
  8
1
  6
Continuous
 62
     7
100
AcDbLine
 10
-19.49593229430059
 20
15.86370041827229
 30
0.0
 11
-18.32369931125729
 21
13.83333333333326
 31
0.0
  0
LINE
  5
1D7
102
{ACAD_REACTORS
330
317
102
}
330
1F
100
AcDbEntity
  8
1
  6
Continuous
 62
     7
100
AcDbLine
 10
-19.99036597792409
 20
12.5
 30
0.0
 11
-19.99036597792409
 21
15.73121731203457
 31
0.0
  0
LINE
  5
1D8
330
1F
100
AcDbEntity
  8
1
  6
Continuous
 62
     7
100
AcDbLine
 10
-18.32369931125729
 20
7.5
 30
0.0
 11
-26.74013458639891
 21
12.35563573565861
 31
0.0
  0
LINE
  5
1D9
330
1F
100
AcDbEntity
  8
1
  6
Continuous
 62
     7
100
AcDbLine
 10
-9.90726403611589
 20
12.35563573565861
 30
0.0
 11
-18.32369931125729
 21
7.5
 31
0.0
  0
LINE
  5
1DA
330
1F
100
AcDbEntity
  8
1
  6
Continuous
 62
     7
100
AcDbLine
 10
-18.32369931125729
 20
17.5
 30
0.0
 11
-9.90726403611589
 21
12.64436426434128
 31
0.0
  0
LINE
  5
1DB
330
1F
100
AcDbEntity
  8
1
  6
Continuous
 62
     7
100
AcDbLine
 10
-26.74013458639891
 20
12.64436426434128
 30
0.0
 11
-18.32369931125729
 21
17.5
 31
0.0
  0
LINE
  5
1DC
102
{ACAD_REACTORS
330
317
102
}
330
1F
100
AcDbEntity
  8
1
  6
Continuous
 62
     7
100
AcDbLine
 10
-19.32369931125729
 20
14.23205080756878
 30
0.0
 11
-19.32369931125729
 21
12.5
 31
0.0
  0
LINE
  5
1DD
102
{ACAD_REACTORS
330
317
102
}
330
1F
100
AcDbEntity
  8
1
  6
Continuous
 62
     7
100
AcDbLine
 10
-18.46803687855478
 20
12.75
 30
0.0
 11
-19.32369931125729
 21
14.23205080756878
 31
0.0
  0
LINE
  5
1DE
102
{ACAD_REACTORS
330
317
102
}
330
1F
100
AcDbEntity
  8
1
  6
Continuous
 62
     7
100
AcDbLine
 10
-17.32369931125729
 20
14.23205080756878
 30
0.0
 11
-18.1793617439599
 21
12.75
 31
0.0
  0
LINE
  5
1DF
102
{ACAD_REACTORS
330
317
102
}
330
1F
100
AcDbEntity
  8
1
  6
Continuous
 62
     7
100
AcDbLine
 10
-17.32369931125729
 20
12.5
 30
0.0
 11
-17.32369931125729
 21
14.23205080756878
 31
0.0
  0
LINE
  5
1E0
102
{ACAD_REACTORS
330
314
102
}
330
1F
100
AcDbEntity
  8
1
  6
Continuous
 62
     7
100
AcDbLine
 10
-15.99036597792389
 20
10.07749983983257
 30
0.0
 11
-15.99036597792389
 21
14.92250016016737
 31
0.0
  0
LINE
  5
1E1
330
1F
100
AcDbEntity
  8
1
  6
Continuous
 62
     7
100
AcDbLine
 10
-189.0
 20
292.0000000000001
 30
0.0
 11
-189.0
 21
4.99999999999989
 31
0.0
  0
LINE
  5
1E2
330
1F
100
AcDbEntity
  8
1
  6
Continuous
 62
     7
100
AcDbLine
 10
-5.0
 20
292.0000000000001
 30
0.0
 11
-189.0
 21
292.0000000000001
 31
0.0
  0
LINE
  5
1E3
330
1F
100
AcDbEntity
  8
1
  6
Continuous
 62
     7
100
AcDbLine
 10
-5.0
 20
4.99999999999989
 30
0.0
 11
-5.0
 21
292.0000000000001
 31
0.0
  0
LINE
  5
1E4
330
1F
100
AcDbEntity
  8
1
  6
Continuous
 62
     7
100
AcDbLine
 10
0.0
 20
297.0000000000001
 30
0.0
 11
-210.0000000000001
 21
297.0000000000001
 31
0.0
  0
LINE
  5
1E5
330
1F
100
AcDbEntity
  8
1
  6
Continuous
 62
     7
100
AcDbLine
 10
-210.0000000000001
 20
297.0000000000001
 30
0.0
 11
-210.0000000000001
 21
0.0
 31
0.0
  0
LINE
  5
1E6
330
1F
100
AcDbEntity
  8
1
  6
Continuous
 62
     7
100
AcDbLine
 10
-210.0000000000001
 20
0.0
 30
0.0
 11
0.0
 21
0.0
 31
0.0
  0
LINE
  5
1E7
330
1F
100
AcDbEntity
  8
1
  6
Continuous
 62
     7
100
AcDbLine
 10
0.0
 20
0.0
 30
0.0
 11
0.0
 21
297.0000000000001
 31
0.0
  0
LINE
  5
1E8
330
1F
100
AcDbEntity
  8
1
  6
Continuous
 62
     7
100
AcDbLine
 10
-210.0000000000001
 20
148.4999999999998
 30
0.0
 11
-195.0000000000001
 21
148.4999999999998
 31
0.0
  0
LINE
  5
1E9
330
1F
100
AcDbEntity
  8
1
  6
Continuous
 62
     7
100
AcDbLine
 10
-189.0
 20
12.5
 30
0.0
 11
-159.0
 21
12.5
 31
0.0
  0
LINE
  5
1EA
330
1F
100
AcDbEntity
  8
1
  6
Continuous
 62
     7
100
AcDbLine
 10
-159.0
 20
20.0
 30
0.0
 11
-159.0
 21
5.0
 31
0.0
  0
LINE
  5
1EB
330
1F
100
AcDbEntity
  8
1
  6
Continuous
 62
     7
100
AcDbLine
 10
-31.6473986225146
 20
20.0
 30
0.0
 11
-31.6473986225146
 21
5.0
 31
0.0
  0
LINE
  5
1EC
330
1F
100
AcDbEntity
  8
1
  6
Continuous
 62
     7
100
AcDbLine
 10
-49.0
 20
20.0
 30
0.0
 11
-49.0
 21
5.0
 31
0.0
  0
LINE
  5
1ED
330
1F
100
AcDbEntity
  8
1
  6
Continuous
 62
     7
100
AcDbLine
 10
-189.0
 20
20.0
 30
0.0
 11
-189.0
 21
4.99999999999989
 31
0.0
  0
ARC
  5
1EE
330
1F
100
AcDbEntity
  8
0
  6
Continuous
 62
     7
100
AcDbCircle
 10
-67.46603605580789
 20
235.2554683791695
 30
0.0
 40
0.5000000000000469
100
AcDbArc
 50
116.5650511770809
 51
138.5678011494619
  0
ARC
  5
1EF
330
1F
100
AcDbEntity
  8
0
  6
Continuous
 62
     7
100
AcDbCircle
 10
-74.8906572582665
 20
228.5754741349857
 30
0.0
 40
0.5
100
AcDbArc
 50
180.0
 51
243.4349488229176
  0
ARC
  5
1F0
330
1F
100
AcDbEntity
  8
0
  6
Continuous
 62
     7
100
AcDbCircle
 10
-51.55613347911051
 20
232.2502645591267
 30
0.0
 40
0.5
100
AcDbArc
 50
0.0
 51
63.43494882292201
  0
ARC
  5
1F1
330
1F
100
AcDbEntity
  8
0
  6
Continuous
 62
     7
100
AcDbCircle
 10
-137.4941190525835
 20
275.2192573458642
 30
0.0
 40
0.5000000000000342
100
AcDbArc
 50
63.43494882292201
 51
116.565051177078
  0
ARC
  5
1F2
330
1F
100
AcDbEntity
  8
0
  6
Continuous
 62
     7
100
AcDbCircle
 10
-142.4438665208894
 20
272.7443836117113
 30
0.0
 40
0.4999999999999961
100
AcDbArc
 50
116.5650511770693
 51
180.0
  0
ARC
  5
1F3
330
1F
100
AcDbEntity
  8
0
  6
Continuous
 62
     7
100
AcDbCircle
 10
-142.4438665208894
 20
259.7540025549449
 30
0.0
 40
0.5
100
AcDbArc
 50
180.0
 51
243.4349488229249
  0
ARC
  5
1F4
330
1F
100
AcDbEntity
  8
0
  6
Continuous
 62
     7
100
AcDbCircle
 10
-126.533963944192
 20
269.7391797916685
 30
0.0
 40
0.4999999999998871
100
AcDbArc
 50
25.11834642425391
 51
63.43494882290745
  0
ARC
  5
1F5
330
1F
100
AcDbEntity
  8
0
  6
Continuous
 62
     7
100
AcDbCircle
 10
-131.4837114124979
 20
254.2739250007492
 30
0.0
 40
0.5000000000000342
100
AcDbArc
 50
243.434948822922
 51
296.5650511770692
  0
ARC
  5
1F6
330
1F
100
AcDbEntity
  8
0
  6
Continuous
 62
     2
100
AcDbCircle
 10
-131.3487554584189
 20
254.0020538021878
 30
0.0
 40
0.1964788239168105
100
AcDbArc
 50
296.820569548759
 51
318.8235412438075
  0
ARC
  5
1F7
330
1F
100
AcDbEntity
  8
0
  6
Continuous
 62
     7
100
AcDbCircle
 10
-119.1093427417334
 20
263.4287929790859
 30
0.0
 40
0.5
100
AcDbArc
 50
0.0
 51
63.43494882291036
  0
ARC
  5
1F8
330
1F
100
AcDbEntity
  8
0
  6
Continuous
 62
     7
100
AcDbCircle
 10
-124.0590902100393
 20
253.159690610873
 30
0.0
 40
0.4999999999999579
100
AcDbArc
 50
243.4349488229176
 51
296.5650511770765
  0
ARC
  5
1F9
330
1F
100
AcDbEntity
  8
0
  6
Continuous
 62
     7
100
AcDbCircle
 10
-69.9409097899606
 20
238.8445765031987
 30
0.0
 40
0.4999999999999198
100
AcDbArc
 50
63.43494882292639
 51
116.5650511770824
  0
ARC
  5
1FA
330
1F
100
AcDbEntity
  8
0
  6
Continuous
 62
     7
100
AcDbCircle
 10
-74.8906572582665
 20
236.3697027690457
 30
0.0
 40
0.5000000000001358
100
AcDbArc
 50
116.5650511770722
 51
180.0
  0
ARC
  5
1FB
330
1F
100
AcDbEntity
  8
0
  6
Continuous
 62
     7
100
AcDbCircle
 10
-62.51628858750203
 20
237.7303421133224
 30
0.0
 40
0.5000000000001518
100
AcDbArc
 50
63.4349488229242
 51
116.5650511770714
  0
ARC
  5
1FC
330
1F
100
AcDbEntity
  8
0
  6
Continuous
 62
     7
100
AcDbCircle
 10
-56.50588094741641
 20
216.7850097682075
 30
0.0
 40
0.5000000000001105
100
AcDbArc
 50
243.4349488229264
 51
296.5650511770649
  0
ARC
  5
1FD
330
1F
100
AcDbEntity
  8
0
  6
Continuous
 62
     7
100
AcDbCircle
 10
-67.46603605580789
 20
222.2650873224033
 30
0.0
 40
0.5000000000000745
100
AcDbArc
 50
205.118346424269
 51
243.4349488229205
  0
ARC
  5
1FE
330
1F
100
AcDbEntity
  8
1
  6
Continuous
 62
     7
100
AcDbCircle
 10
-102.0
 20
108.7264721473802
 30
0.0
 40
2.200000000000003
100
AcDbArc
 50
270.0
 51
331.6423634236713
  0
ARC
  5
1FF
330
1F
100
AcDbEntity
  8
1
  6
Continuous
 62
     7
100
AcDbCircle
 10
-97.00000000000006
 20
108.7264721473802
 30
0.0
 40
2.200000000000011
100
AcDbArc
 50
28.35763657632659
 51
151.6423634236727
  0
ARC
  5
200
330
1F
100
AcDbEntity
  8
1
  6
Continuous
 62
     7
100
AcDbCircle
 10
-92.00000000000006
 20
108.7264721473802
 30
0.0
 40
2.199999999999968
100
AcDbArc
 50
208.3576365763276
 51
270.0
  0
ARC
  5
201
330
1F
100
AcDbEntity
  8
1
  6
Continuous
 62
     7
100
AcDbCircle
 10
-92.00000000000006
 20
108.7264721473802
 30
0.0
 40
2.199999999999989
100
AcDbArc
 50
90.0
 51
151.6423634236727
  0
ARC
  5
202
330
1F
100
AcDbEntity
  8
1
  6
Continuous
 62
     7
100
AcDbCircle
 10
-97.00000000000006
 20
108.7264721473802
 30
0.0
 40
2.199999999999968
100
AcDbArc
 50
208.3576365763276
 51
331.6423634236731
  0
ARC
  5
203
330
1F
100
AcDbEntity
  8
1
  6
Continuous
 62
     7
100
AcDbCircle
 10
-102.0
 20
108.7264721473802
 30
0.0
 40
2.199999999999886
100
AcDbArc
 50
28.35763657632835
 51
90.0
  0
ARC
  5
204
330
1F
100
AcDbEntity
  8
0
  6
Continuous
 62
     7
100
AcDbCircle
 10
-85.24999999999778
 20
160.9882730455082
 30
0.0
 40
0.5
100
AcDbArc
 50
180.0
 51
270.0
  0
ARC
  5
205
330
1F
100
AcDbEntity
  8
0
  6
Continuous
 62
     7
100
AcDbCircle
 10
-76.24999999999778
 20
168.7882730455083
 30
0.0
 40
0.5
100
AcDbArc
 50
90.0
 51
180.0
  0
ARC
  5
206
330
1F
100
AcDbEntity
  8
0
  6
Continuous
 62
     7
100
AcDbCircle
 10
-85.24999999999778
 20
167.5882730455083
 30
0.0
 40
0.5
100
AcDbArc
 50
90.0
 51
180.0
  0
ARC
  5
207
330
1F
100
AcDbEntity
  8
0
  6
Continuous
 62
     7
100
AcDbCircle
 10
-68.74999999999784
 20
171.7882730455081
 30
0.0
 40
0.5
100
AcDbArc
 50
90.0
 51
143.1301023541599
  0
ARC
  5
208
330
1F
100
AcDbEntity
  8
0
  6
Continuous
 62
     7
100
AcDbCircle
 10
-50.24999999999778
 20
171.7882730455081
 30
0.0
 40
0.5
100
AcDbArc
 50
0.0
 51
90.0
  0
ARC
  5
209
330
1F
100
AcDbEntity
  8
0
  6
Continuous
 62
     7
100
AcDbCircle
 10
-74.74999999999778
 20
176.2882730455083
 30
0.0
 40
7.0
100
AcDbArc
 50
270.0
 51
323.1301023541541
  0
ARC
  5
20A
330
1F
100
AcDbEntity
  8
0
  6
Continuous
 62
     7
100
AcDbCircle
 10
-57.24999999999778
 20
163.9882730455082
 30
0.0
 40
1.75
100
AcDbArc
 50
180.0
 51
270.0
  0
ARC
  5
20B
330
1F
100
AcDbEntity
  8
0
  6
Continuous
 62
     7
100
AcDbCircle
 10
-57.24999999999778
 20
163.9882730455082
 30
0.0
 40
1.25
100
AcDbArc
 50
180.0
 51
270.0
  0
ARC
  5
20C
330
1F
100
AcDbEntity
  8
0
  6
Continuous
 62
     7
100
AcDbCircle
 10
-58.74999999999778
 20
164.5882730455083
 30
0.0
 40
1.25
100
AcDbArc
 50
90.0
 51
180.0
  0
ARC
  5
20D
330
1F
100
AcDbEntity
  8
0
  6
Continuous
 62
     7
100
AcDbCircle
 10
-57.69999999999777
 20
166.0882730455083
 30
0.0
 40
0.7500000000000121
100
AcDbArc
 50
199.4712206344904
 51
160.5287793655096
  0
ARC
  5
20E
330
1F
100
AcDbEntity
  8
0
  6
Continuous
 62
     7
100
AcDbCircle
 10
-58.74999999999778
 20
164.5882730455083
 30
0.0
 40
1.75
100
AcDbArc
 50
90.0
 51
180.0
  0
ARC
  5
20F
330
1F
100
AcDbEntity
  8
0
  6
Continuous
 62
     7
100
AcDbCircle
 10
-62.24999999999778
 20
164.2882730455083
 30
0.0
 40
1.00000000000002
100
AcDbArc
 50
17.45760312372071
 51
342.5423968762731
  0
ARC
  5
210
330
1F
100
AcDbEntity
  8
0
  6
Continuous
 62
     7
100
AcDbCircle
 10
-50.24999999999778
 20
156.7882730455084
 30
0.0
 40
0.5
100
AcDbArc
 50
270.0
 51
0.0
  0
ARC
  5
211
330
1F
100
AcDbEntity
  8
0
  6
Continuous
 62
     7
100
AcDbCircle
 10
-74.74999999999778
 20
152.2882730455083
 30
0.0
 40
6.999999999999988
100
AcDbArc
 50
36.86989764584514
 51
90.0
  0
ARC
  5
212
330
1F
100
AcDbEntity
  8
0
  6
Continuous
 62
     7
100
AcDbCircle
 10
-68.74999999999784
 20
156.7882730455084
 30
0.0
 40
0.500000000000017
100
AcDbArc
 50
216.8698976458401
 51
270.0
  0
ARC
  5
213
330
1F
100
AcDbEntity
  8
0
  6
Continuous
 62
     7
100
AcDbCircle
 10
-76.24999999999778
 20
159.7882730455083
 30
0.0
 40
0.5
100
AcDbArc
 50
180.0
 51
270.0
  0
ARC
  5
214
330
1F
100
AcDbEntity
  8
0
  6
Continuous
 62
     7
100
AcDbCircle
 10
-117.7500000000022
 20
168.7882730455083
 30
0.0
 40
0.5
100
AcDbArc
 50
0.0
 51
90.0
  0
ARC
  5
215
330
1F
100
AcDbEntity
  8
0
  6
Continuous
 62
     7
100
AcDbCircle
 10
-125.2500000000021
 20
171.7882730455081
 30
0.0
 40
0.4999999999999943
100
AcDbArc
 50
36.86989764584207
 51
90.0
  0
ARC
  5
216
330
1F
100
AcDbEntity
  8
0
  6
Continuous
 62
     7
100
AcDbCircle
 10
-119.2500000000022
 20
176.2882730455083
 30
0.0
 40
7.000000000000045
100
AcDbArc
 50
216.869897645846
 51
270.0
  0
ARC
  5
217
330
1F
100
AcDbEntity
  8
0
  6
Continuous
 62
     7
100
AcDbCircle
 10
-143.7500000000022
 20
171.7882730455081
 30
0.0
 40
0.5
100
AcDbArc
 50
90.0
 51
180.0
  0
ARC
  5
218
330
1F
100
AcDbEntity
  8
0
  6
Continuous
 62
     7
100
AcDbCircle
 10
-131.7500000000022
 20
164.2882730455083
 30
0.0
 40
1.0
100
AcDbArc
 50
197.4576031237279
 51
162.5423968762783
  0
ARC
  5
219
330
1F
100
AcDbEntity
  8
0
  6
Continuous
 62
     7
100
AcDbCircle
 10
-135.2500000000022
 20
163.9882730455082
 30
0.0
 40
1.75
100
AcDbArc
 50
270.0
 51
0.0
  0
ARC
  5
21A
330
1F
100
AcDbEntity
  8
0
  6
Continuous
 62
     7
100
AcDbCircle
 10
-136.3000000000022
 20
162.4882730455082
 30
0.0
 40
0.7499999999999517
100
AcDbArc
 50
19.471220634492
 51
340.528779365508
  0
ARC
  5
21B
330
1F
100
AcDbEntity
  8
0
  6
Continuous
 62
     7
100
AcDbCircle
 10
-135.2500000000022
 20
163.9882730455082
 30
0.0
 40
1.25
100
AcDbArc
 50
270.0
 51
0.0
  0
ARC
  5
21C
330
1F
100
AcDbEntity
  8
0
  6
Continuous
 62
     7
100
AcDbCircle
 10
-136.7500000000022
 20
164.5882730455083
 30
0.0
 40
1.25
100
AcDbArc
 50
0.0
 51
90.0
  0
ARC
  5
21D
330
1F
100
AcDbEntity
  8
0
  6
Continuous
 62
     7
100
AcDbCircle
 10
-136.7500000000022
 20
164.5882730455083
 30
0.0
 40
1.75
100
AcDbArc
 50
0.0
 51
90.0
  0
ARC
  5
21E
330
1F
100
AcDbEntity
  8
0
  6
Continuous
 62
     7
100
AcDbCircle
 10
-119.2500000000022
 20
152.2882730455083
 30
0.0
 40
7.0
100
AcDbArc
 50
90.0
 51
143.1301023541548
  0
ARC
  5
21F
330
1F
100
AcDbEntity
  8
0
  6
Continuous
 62
     7
100
AcDbCircle
 10
-143.7500000000022
 20
156.7882730455084
 30
0.0
 40
0.5
100
AcDbArc
 50
180.0
 51
270.0
  0
ARC
  5
220
330
1F
100
AcDbEntity
  8
0
  6
Continuous
 62
     7
100
AcDbCircle
 10
-125.2500000000021
 20
156.7882730455084
 30
0.0
 40
0.5
100
AcDbArc
 50
270.0
 51
323.1301023541579
  0
ARC
  5
221
330
1F
100
AcDbEntity
  8
0
  6
Continuous
 62
     7
100
AcDbCircle
 10
-108.7500000000022
 20
160.9882730455082
 30
0.0
 40
0.5
100
AcDbArc
 50
270.0
 51
0.0
  0
ARC
  5
222
330
1F
100
AcDbEntity
  8
0
  6
Continuous
 62
     7
100
AcDbCircle
 10
-117.7500000000022
 20
159.7882730455083
 30
0.0
 40
0.5
100
AcDbArc
 50
270.0
 51
0.0
  0
ARC
  5
223
330
1F
100
AcDbEntity
  8
0
  6
Continuous
 62
     7
100
AcDbCircle
 10
-108.7500000000022
 20
167.5882730455083
 30
0.0
 40
0.5
100
AcDbArc
 50
0.0
 51
90.0
  0
ARC
  5
224
102
{ACAD_REACTORS
330
310
102
}
330
1F
100
AcDbEntity
  8
1
  6
Continuous
 62
     7
100
AcDbCircle
 10
-99.43139953817683
 20
165.2882730455083
 30
0.0
 40
1.25
100
AcDbArc
 50
306.869897645844
 51
53.13010235415597
  0
ARC
  5
225
102
{ACAD_REACTORS
330
310
102
}
330
1F
100
AcDbEntity
  8
1
  6
Continuous
 62
     7
100
AcDbCircle
 10
-97.93139953817683
 20
165.2882730455083
 30
0.0
 40
1.25
100
AcDbArc
 50
126.869897645844
 51
233.130102354156
  0
ARC
  5
226
330
1F
100
AcDbEntity
  8
1
  6
Continuous
 62
     7
100
AcDbCircle
 10
-99.43139953817683
 20
163.2882730455083
 30
0.0
 40
1.25
100
AcDbArc
 50
306.869897645844
 51
53.13010235415597
  0
ARC
  5
227
102
{ACAD_REACTORS
330
311
102
}
330
1F
100
AcDbEntity
  8
1
  6
Continuous
 62
     7
100
AcDbCircle
 10
-94.2061928102263
 20
163.2882730455083
 30
0.0
 40
1.25
100
AcDbArc
 50
126.869897645844
 51
233.130102354156
  0
ARC
  5
228
102
{ACAD_REACTORS
330
311
102
}
330
1F
100
AcDbEntity
  8
1
  6
Continuous
 62
     7
100
AcDbCircle
 10
-95.7061928102263
 20
163.2882730455083
 30
0.0
 40
1.25
100
AcDbArc
 50
306.869897645844
 51
53.13010235415597
  0
ARC
  5
229
330
1F
100
AcDbEntity
  8
1
  6
Continuous
 62
     7
100
AcDbCircle
 10
-94.2061928102263
 20
165.2882730455083
 30
0.0
 40
1.25
100
AcDbArc
 50
126.869897645844
 51
233.130102354156
  0
ARC
  5
22A
330
1F
100
AcDbEntity
  8
0
  6
Continuous
 62
     7
100
AcDbCircle
 10
-173.8961775799808
 20
171.7882730455081
 30
0.0
 40
0.5
100
AcDbArc
 50
90.0
 51
180.0
  0
ARC
  5
22B
330
1F
100
AcDbEntity
  8
0
  6
Continuous
 62
     7
100
AcDbCircle
 10
-173.8961775799808
 20
156.7882730455084
 30
0.0
 40
0.5
100
AcDbArc
 50
180.0
 51
270.0
  0
ARC
  5
22C
330
1F
100
AcDbEntity
  8
0
  6
Continuous
 62
     7
100
AcDbCircle
 10
-166.8961775799808
 20
156.7882730455084
 30
0.0
 40
0.5
100
AcDbArc
 50
270.0
 51
0.0
  0
ARC
  5
22D
330
1F
100
AcDbEntity
  8
0
  6
Continuous
 62
     7
100
AcDbCircle
 10
-166.8961775799808
 20
171.7882730455081
 30
0.0
 40
0.5
100
AcDbArc
 50
0.0
 51
90.0
  0
ARC
  5
22E
330
1F
100
AcDbEntity
  8
0
  6
Continuous
 62
     7
100
AcDbCircle
 10
-27.10382242001921
 20
171.7882730455081
 30
0.0
 40
0.5
100
AcDbArc
 50
90.0
 51
180.0
  0
ARC
  5
22F
330
1F
100
AcDbEntity
  8
0
  6
Continuous
 62
     7
100
AcDbCircle
 10
-27.10382242001921
 20
156.7882730455084
 30
0.0
 40
0.4999999999999787
100
AcDbArc
 50
180.0
 51
270.0
  0
ARC
  5
230
330
1F
100
AcDbEntity
  8
0
  6
Continuous
 62
     7
100
AcDbCircle
 10
-20.10382242001921
 20
156.7882730455084
 30
0.0
 40
0.5
100
AcDbArc
 50
270.0
 51
0.0
  0
ARC
  5
231
330
1F
100
AcDbEntity
  8
0
  6
Continuous
 62
     7
100
AcDbCircle
 10
-20.10382242001921
 20
171.7882730455081
 30
0.0
 40
0.5
100
AcDbArc
 50
0.0
 51
90.0
  0
ARC
  5
232
102
{ACAD_REACTORS
330
314
102
}
330
1F
100
AcDbEntity
  8
1
  6
Continuous
 62
     7
100
AcDbCircle
 10
-14.32369931125729
 20
10.84673060906317
 30
0.0
 40
0.3333333333333121
100
AcDbArc
 50
299.9816393688349
 51
119.9816393688398
  0
ARC
  5
233
102
{ACAD_REACTORS
330
314
102
}
330
1F
100
AcDbEntity
  8
1
  6
Continuous
 62
     7
100
AcDbCircle
 10
-14.32369931125729
 20
12.5
 30
0.0
 40
0.3333333333334298
100
AcDbArc
 50
270.0
 51
90.0
  0
ARC
  5
234
102
{ACAD_REACTORS
330
314
102
}
330
1F
100
AcDbEntity
  8
1
  6
Continuous
 62
     7
100
AcDbCircle
 10
-14.32369931125729
 20
14.15326939093666
 30
0.0
 40
0.333333333333372
100
AcDbArc
 50
240.0183606311508
 51
60.01836063115039
  0
ARC
  5
235
102
{ACAD_REACTORS
330
315
102
}
330
1F
100
AcDbEntity
  8
1
  6
Continuous
 62
     7
100
AcDbCircle
 10
-22.32369931125729
 20
10.84673060906317
 30
0.0
 40
0.3333333333333997
100
AcDbArc
 50
180.0
 51
0.0
  0
ARC
  5
236
102
{ACAD_REACTORS
330
315
102
}
330
1F
100
AcDbEntity
  8
1
  6
Continuous
 62
     7
100
AcDbCircle
 10
-22.32369931125729
 20
14.15326939093666
 30
0.0
 40
0.3333333333332007
100
AcDbArc
 50
0.0
 51
180.0
  0
ARC
  5
237
102
{ACAD_REACTORS
330
316
102
}
330
1F
100
AcDbEntity
  8
1
  6
Continuous
 62
     7
100
AcDbCircle
 10
-18.65703264459069
 20
8.7313459936787
 30
0.0
 40
0.3333333333333673
100
AcDbArc
 50
240.0183606311504
 51
60.01836063115359
  0
ARC
  5
238
102
{ACAD_REACTORS
330
316
102
}
330
1F
100
AcDbEntity
  8
1
  6
Continuous
 62
     7
100
AcDbCircle
 10
-20.99036597792409
 20
14.92250016016737
 30
0.0
 40
0.3333333333333997
100
AcDbArc
 50
0.0
 51
180.0
  0
ARC
  5
239
102
{ACAD_REACTORS
330
317
102
}
330
1F
100
AcDbEntity
  8
1
  6
Continuous
 62
     7
100
AcDbCircle
 10
-16.921998857066
 20
15.73121731203457
 30
0.0
 40
0.2649662124753114
100
AcDbArc
 50
0.0
 51
149.9999999999689
  0
ARC
  5
23A
102
{ACAD_REACTORS
330
317
102
}
330
1F
100
AcDbEntity
  8
1
  6
Continuous
 62
     7
100
AcDbCircle
 10
-16.99036597792389
 20
9.3082690706018
 30
0.0
 40
0.3333333333333997
100
AcDbArc
 50
180.0
 51
0.0
  0
ARC
  5
23B
102
{ACAD_REACTORS
330
317
102
}
330
1F
100
AcDbEntity
  8
1
  6
Continuous
 62
     7
100
AcDbCircle
 10
-19.65703264459069
 20
10.84758507263291
 30
0.0
 40
0.3333333333333997
100
AcDbArc
 50
180.0
 51
0.0
  0
ARC
  5
23C
102
{ACAD_REACTORS
330
317
102
}
330
1F
100
AcDbEntity
  8
1
  6
Continuous
 62
     7
100
AcDbCircle
 10
-19.72539976544869
 20
15.73121731203457
 30
0.0
 40
0.2649662124752854
100
AcDbArc
 50
30.00000000001921
 51
180.0
  0
SPLINE
  5
23D
330
1F
100
AcDbEntity
  8
0
  6
Continuous
 62
     2
100
AcDbSpline
210
0.0
220
0.0
230
1.0
 70
     8
 71
     3
 72
     9
 73
     5
 74
     3
 42
0.000000001
 43
0.0000000001
 44
0.00000001
 40
0.0
 40
0.0
 40
0.0
 40
0.0
 40
0.1353717298684595
 40
0.2383355350529848
 40
0.2383355350529848
 40
0.2383355350529848
 40
0.2383355350529848
 10
-75.2442106488598
 20
228.3986974396892
 30
0.0
 10
-75.28586203121475
 20
228.4215034996091
 30
0.0
 10
-75.35919346194251
 20
228.4616558730119
 30
0.0
 10
-75.38116520815932
 20
228.5411372322064
 30
0.0
 10
-75.3906572582665
 20
228.5754741349857
 30
0.0
 11
-75.2442106488598
 21
228.3986974396892
 31
0.0
 11
-75.35259561999662
 21
228.4798035677813
 31
0.0
 11
-75.3906572582665
 21
228.5754741349857
 31
0.0
  0
SPLINE
  5
23E
330
1F
100
AcDbEntity
  8
0
  6
Continuous
 62
     2
100
AcDbSpline
210
0.0
220
0.0
230
1.0
 70
     8
 71
     3
 72
     9
 73
     5
 74
     3
 42
0.000000001
 43
0.0000000001
 44
0.00000001
 40
0.0
 40
0.0
 40
0.0
 40
0.0
 40
0.1235247414898837
 40
0.2303320446272665
 40
0.2303320446272665
 40
0.2303320446272665
 40
0.2303320446272665
 10
-67.46603605580789
 20
235.6884810810619
 30
0.0
 10
-67.50536346150082
 20
235.7050133606896
 30
0.0
 10
-67.57869583200605
 20
235.7358404758858
 30
0.0
 10
-67.65449432503722
 20
235.713186747128
 30
0.0
 10
-67.68964285355791
 20
235.7026819746695
 30
0.0
 11
-67.46603605580789
 21
235.6884810810619
 31
0.0
 11
-67.5847275490935
 21
235.7226964541566
 31
0.0
 11
-67.68964285355791
 21
235.7026819746695
 31
0.0
  0
SPLINE
  5
23F
330
1F
100
AcDbEntity
  8
0
  6
Continuous
 62
     2
100
AcDbSpline
210
0.0
220
0.0
230
1.0
 70
     8
 71
     3
 72
    11
 73
     7
 74
     5
 42
0.000000001
 43
0.0000000001
 44
0.00000001
 40
0.0
 40
0.0
 40
0.0
 40
0.0
 40
0.1811732926745823
 40
0.3757061216318199
 40
0.5655016222809066
 40
0.7341089145550441
 40
0.7341089145550441
 40
0.7341089145550441
 40
0.7341089145550441
 10
-67.8195894464012
 20
235.078691683873
 30
0.0
 10
-67.81379152037402
 20
235.1392109430406
 30
0.0
 10
-67.80176812014135
 20
235.2647120881286
 30
0.0
 10
-67.72205048412668
 20
235.4381123665844
 30
0.0
 10
-67.61408008758336
 20
235.5913161492352
 30
0.0
 10
-67.5134000543462
 20
235.6573949320994
 30
0.0
 10
-67.46603605580789
 20
235.6884810810619
 30
0.0
 11
-67.8195894464012
 21
235.078691683873
 31
0.0
 11
-67.7926758038775
 21
235.257854788322
 31
0.0
 11
-67.7160360558079
 21
235.4366545970175
 31
0.0
 11
-67.60133466946847
 21
235.5878694285802
 31
0.0
 11
-67.46603605580789
 21
235.6884810810619
 31
0.0
  0
SPLINE
  5
240
330
1F
100
AcDbEntity
  8
0
  6
Continuous
 62
     2
100
AcDbSpline
210
0.0
220
0.0
230
1.0
 70
     8
 71
     3
 72
     9
 73
     5
 74
     3
 42
0.000000001
 43
0.0000000001
 44
0.00000001
 40
0.0
 40
0.0
 40
0.0
 40
0.0
 40
0.2898457949030582
 40
0.5374614267773168
 40
0.5374614267773168
 40
0.5374614267773168
 40
0.5374614267773168
 10
-67.8195894464012
 20
235.078691683873
 30
0.0
 10
-67.86957336322297
 20
235.1692646578127
 30
0.0
 10
-67.96225858598021
 20
235.3372142416536
 30
0.0
 10
-67.87918077306135
 20
235.5077615970461
 30
0.0
 10
-67.84090571072421
 20
235.5863350318001
 30
0.0
 11
-67.8195894464012
 21
235.078691683873
 31
0.0
 11
-67.91842399997908
 21
235.3511661188903
 31
0.0
 11
-67.84090571072421
 21
235.5863350318001
 31
0.0
  0
SPLINE
  5
241
330
1F
100
AcDbEntity
  8
0
  6
Continuous
 62
     7
100
AcDbSpline
210
0.0
220
0.0
230
1.0
 70
     8
 71
     3
 72
    11
 73
     7
 74
     5
 42
0.000000001
 43
0.0000000001
 44
0.00000001
 40
0.0
 40
0.0
 40
0.0
 40
0.0
 40
0.2177765520019057
 40
0.4574718334558611
 40
0.706579102904056
 40
0.9394732567013373
 40
0.9394732567013373
 40
0.9394732567013373
 40
0.9394732567013373
 10
-68.5781815744274
 20
235.0129127027599
 30
0.0
 10
-68.51410844694246
 20
235.0471594833932
 30
0.0
 10
-68.37951338068595
 20
235.1190999209743
 30
0.0
 10
-68.18680996915734
 20
235.2554388868009
 30
0.0
 10
-68.00304912531912
 20
235.4114612576708
 30
0.0
 10
-67.89372776193237
 20
235.5293657576061
 30
0.0
 10
-67.84090571072421
 20
235.5863350318001
 30
0.0
 11
-68.5781815744274
 21
235.0129127027599
 31
0.0
 11
-68.38818984606274
 21
235.1193540950462
 31
0.0
 11
-68.1915048046903
 21
235.2563534489018
 31
0.0
 11
-68.00250203191182
 21
235.4186260099548
 31
0.0
 11
-67.84090571072421
 21
235.5863350318001
 31
0.0
  0
SPLINE
  5
242
330
1F
100
AcDbEntity
  8
0
  6
Continuous
 62
     2
100
AcDbSpline
210
0.0
220
0.0
230
1.0
 70
     8
 71
     3
 72
    11
 73
     7
 74
     5
 42
0.000000001
 43
0.0000000001
 44
0.00000001
 40
0.0
 40
0.0
 40
0.0
 40
0.0
 40
0.1686072922740415
 40
0.3584027929231594
 40
0.552935621880438
 40
0.7341089145550214
 40
0.7341089145550214
 40
0.7341089145550214
 40
0.7341089145550214
 10
-56.50588094741641
 20
230.2084035268659
 30
0.0
 10
-56.55324494595472
 20
230.1773173779034
 30
0.0
 10
-56.65392497919193
 20
230.1112385950393
 30
0.0
 10
-56.76189537573526
 20
229.9580348123888
 30
0.0
 10
-56.8416130117498
 20
229.7846345339327
 30
0.0
 10
-56.85363641198253
 20
229.6591333888446
 30
0.0
 10
-56.85943433800971
 20
229.5986141296771
 30
0.0
 11
-56.50588094741641
 21
230.2084035268659
 31
0.0
 11
-56.641179561077
 21
230.1077918743844
 31
0.0
 11
-56.75588094741645
 21
229.9565770428217
 31
0.0
 11
-56.83252069548601
 21
229.7777772341261
 31
0.0
 11
-56.85943433800971
 21
229.5986141296771
 31
0.0
  0
SPLINE
  5
243
330
1F
100
AcDbEntity
  8
0
  6
Continuous
 62
     2
100
AcDbSpline
210
0.0
220
0.0
230
1.0
 70
     8
 71
     3
 72
    11
 73
     7
 74
     5
 42
0.000000001
 43
0.0000000001
 44
0.00000001
 40
0.0
 40
0.0
 40
0.0
 40
0.0
 40
0.1686072922740922
 40
0.3584027929232101
 40
0.5529356218804999
 40
0.7341089145550541
 40
0.7341089145550541
 40
0.7341089145550541
 40
0.7341089145550541
 10
-71.7086767429271
 20
235.2117252132683
 30
0.0
 10
-71.7560407414654
 20
235.1806390643058
 30
0.0
 10
-71.85672077470258
 20
235.1145602814416
 30
0.0
 10
-71.96469117124593
 20
234.961356498791
 30
0.0
 10
-72.04440880726051
 20
234.787956220335
 30
0.0
 10
-72.0564322074932
 20
234.6624550752469
 30
0.0
 10
-72.0622301335204
 20
234.6019358160794
 30
0.0
 11
-71.7086767429271
 21
235.2117252132683
 31
0.0
 11
-71.84397535658766
 21
235.1111135607866
 31
0.0
 11
-71.95867674292711
 21
234.9598987292239
 31
0.0
 11
-72.0353164909967
 21
234.7810989205284
 31
0.0
 11
-72.0622301335204
 21
234.6019358160794
 31
0.0
  0
SPLINE
  5
244
330
1F
100
AcDbEntity
  8
0
  6
Continuous
 62
     2
100
AcDbSpline
210
0.0
220
0.0
230
1.0
 70
     8
 71
     3
 72
     9
 73
     5
 74
     3
 42
0.000000001
 43
0.0000000001
 44
0.00000001
 40
0.0
 40
0.0
 40
0.0
 40
0.0
 40
1.729346411075286
 40
3.224648685214862
 40
3.224648685214862
 40
3.224648685214862
 40
3.224648685214862
 10
-71.7086767429271
 20
235.2117252132683
 30
0.0
 10
-71.15809305360582
 20
234.9802732944362
 30
0.0
 10
-70.13143988374395
 20
234.5486934280173
 30
0.0
 10
-69.07026098366063
 20
234.8658458853677
 30
0.0
 10
-68.5781815744274
 20
235.0129127027599
 30
0.0
 11
-71.7086767429271
 21
235.2117252132683
 31
0.0
 11
-70.04699583692877
 21
234.7327099899415
 31
0.0
 11
-68.5781815744274
 21
235.0129127027599
 31
0.0
  0
SPLINE
  5
245
330
1F
100
AcDbEntity
  8
0
  6
Continuous
 62
     2
100
AcDbSpline
210
0.0
220
0.0
230
1.0
 70
     8
 71
     3
 72
    11
 73
     7
 74
     5
 42
0.000000001
 43
0.0000000001
 44
0.00000001
 40
0.0
 40
0.0
 40
0.0
 40
0.0
 40
0.1686072922739902
 40
0.3584027929230952
 40
0.5529356218803878
 40
0.7341089145549617
 40
0.7341089145549617
 40
0.7341089145549617
 40
0.7341089145549617
 10
-56.50588094741641
 20
230.2084035268659
 30
0.0
 10
-56.45851694887812
 20
230.1773173779034
 30
0.0
 10
-56.35783691564093
 20
230.1112385950393
 30
0.0
 10
-56.24986651909767
 20
229.9580348123887
 30
0.0
 10
-56.17014888308302
 20
229.7846345339328
 30
0.0
 10
-56.15812548285036
 20
229.6591333888446
 30
0.0
 10
-56.15232755682322
 20
229.5986141296771
 30
0.0
 11
-56.50588094741641
 21
230.2084035268659
 31
0.0
 11
-56.37058233375588
 21
230.1077918743844
 31
0.0
 11
-56.25588094741645
 21
229.9565770428217
 31
0.0
 11
-56.17924119934685
 21
229.7777772341261
 31
0.0
 11
-56.15232755682322
 21
229.5986141296771
 31
0.0
  0
SPLINE
  5
246
330
1F
100
AcDbEntity
  8
0
  6
Continuous
 62
     2
100
AcDbSpline
210
0.0
220
0.0
230
1.0
 70
     8
 71
     3
 72
    11
 73
     7
 74
     5
 42
0.000000001
 43
0.0000000001
 44
0.00000001
 40
0.0
 40
0.0
 40
0.0
 40
0.0
 40
0.1710252651245634
 40
0.3633104721066416
 40
0.555595679088717
 40
0.7266209442132894
 40
0.7266209442132894
 40
0.7266209442132894
 40
0.7266209442132894
 10
-56.85943433800971
 20
229.5986141296771
 30
0.0
 10
-56.80598914775175
 20
229.5779456234206
 30
0.0
 10
-56.69245505621177
 20
229.5340393488452
 30
0.0
 10
-56.50588094741646
 20
229.5208135342696
 30
0.0
 10
-56.31930683862116
 20
229.5340393488452
 30
0.0
 10
-56.20577274708118
 20
229.5779456234206
 30
0.0
 10
-56.15232755682322
 20
229.5986141296771
 30
0.0
 11
-56.85943433800971
 21
229.5986141296771
 31
0.0
 11
-56.6972220818255
 21
229.5444216441088
 31
0.0
 11
-56.50588094741646
 21
229.5253908249738
 31
0.0
 11
-56.31453981300743
 21
229.5444216441088
 31
0.0
 11
-56.15232755682322
 21
229.5986141296771
 31
0.0
  0
SPLINE
  5
247
330
1F
100
AcDbEntity
  8
0
  6
Continuous
 62
     7
100
AcDbSpline
210
0.0
220
0.0
230
1.0
 70
     8
 71
     3
 72
     9
 73
     5
 74
     3
 42
0.000000001
 43
0.0000000001
 44
0.00000001
 40
0.0
 40
0.0
 40
0.0
 40
0.0
 40
0.1367133486666137
 40
0.2948250184244975
 40
0.2948250184244975
 40
0.2948250184244975
 40
0.2948250184244975
 10
-52.25279520383992
 20
230.1244109937502
 30
0.0
 10
-52.29778532056056
 20
230.1378571025612
 30
0.0
 10
-52.39480739158981
 20
230.1668538808578
 30
0.0
 10
-52.48867282546573
 20
230.1273951679429
 30
0.0
 10
-52.53901190495991
 20
230.1062338499323
 30
0.0
 11
-52.25279520383992
 21
230.1244109937502
 31
0.0
 11
-52.38708679355433
 21
230.1500295274936
 31
0.0
 11
-52.53901190495991
 21
230.1062338499323
 31
0.0
  0
SPLINE
  5
248
330
1F
100
AcDbEntity
  8
0
  6
Continuous
 62
     2
100
AcDbSpline
210
0.0
220
0.0
230
1.0
 70
     8
 71
     3
 72
    11
 73
     7
 74
     5
 42
0.000000001
 43
0.0000000001
 44
0.00000001
 40
0.0
 40
0.0
 40
0.0
 40
0.0
 40
1.293928867015043
 40
2.449000081260821
 40
3.521045652602277
 40
4.597416437703856
 40
4.597416437703856
 40
4.597416437703856
 40
4.597416437703856
 10
-72.0622301335204
 20
234.6019358160794
 30
0.0
 10
-71.6629293035329
 20
234.4314009440763
 30
0.0
 10
-70.9071785078248
 20
234.1086321207096
 30
0.0
 10
-69.71477820747178
 20
234.0366910792686
 30
0.0
 10
-68.61734091898552
 20
234.3375706780219
 30
0.0
 10
-68.08586325981501
 20
234.8313200044225
 30
0.0
 10
-67.8195894464012
 20
235.078691683873
 30
0.0
 11
-72.0622301335204
 21
234.6019358160794
 31
0.0
 11
-70.84378142922297
 21
234.1664651864964
 31
0.0
 11
-69.6905218883942
 21
234.1017972025884
 31
0.0
 11
-68.66415412529844
 21
234.4113952155474
 31
0.0
 11
-67.8195894464012
 21
235.078691683873
 31
0.0
  0
SPLINE
  5
249
330
1F
100
AcDbEntity
  8
0
  6
Continuous
 62
     7
100
AcDbSpline
210
0.0
220
0.0
230
1.0
 70
     8
 71
     3
 72
    11
 73
     7
 74
     5
 42
0.000000001
 43
0.0000000001
 44
0.00000001
 40
0.0
 40
0.0
 40
0.0
 40
0.0
 40
0.2158173344973795
 40
0.4587555762473818
 40
0.7077575980550315
 40
0.9396594128107577
 40
0.9396594128107577
 40
0.9396594128107577
 40
0.9396594128107577
 10
-46.50739106144032
 20
224.8135395927516
 30
0.0
 10
-46.56801697967791
 20
224.7737493220082
 30
0.0
 10
-46.69688742519547
 20
224.6891684830993
 30
0.0
 10
-46.83508953156485
 20
224.4930676391386
 30
0.0
 10
-46.93712810794018
 20
224.2711152828379
 30
0.0
 10
-46.95251805608068
 20
224.1104738161285
 30
0.0
 10
-46.9599394013997
 20
224.0330091643499
 30
0.0
 11
-46.50739106144032
 21
224.8135395927516
 31
0.0
 11
-46.68057328692583
 21
224.6847566775751
 31
0.0
 11
-46.82739106144031
 21
224.4912016931748
 31
0.0
 11
-46.92548993896937
 21
224.2623379380447
 31
0.0
 11
-46.9599394013997
 21
224.0330091643499
 31
0.0
  0
SPLINE
  5
24A
330
1F
100
AcDbEntity
  8
0
  6
Continuous
 62
     2
100
AcDbSpline
210
0.0
220
0.0
230
1.0
 70
     8
 71
     3
 72
     9
 73
     5
 74
     3
 42
0.000000001
 43
0.0000000001
 44
0.00000001
 40
0.0
 40
0.0
 40
0.0
 40
0.0
 40
0.106807303137343
 40
0.2303320446272272
 40
0.2303320446272272
 40
0.2303320446272272
 40
0.2303320446272272
 10
-51.3325266813606
 20
232.6974781546265
 30
0.0
 10
-51.36767520988125
 20
232.7079829270852
 30
0.0
 10
-51.44347370291243
 20
232.730636655843
 30
0.0
 10
-51.51680607341761
 20
232.6998095406465
 30
0.0
 10
-51.55613347911051
 20
232.6832772610188
 30
0.0
 11
-51.3325266813606
 21
232.6974781546265
 31
0.0
 11
-51.43744198582495
 21
232.7174926341137
 31
0.0
 11
-51.55613347911051
 21
232.6832772610188
 31
0.0
  0
SPLINE
  5
24B
330
1F
100
AcDbEntity
  8
0
  6
Continuous
 62
     7
100
AcDbSpline
210
0.0
220
0.0
230
1.0
 70
     8
 71
     3
 72
     9
 73
     5
 74
     3
 42
0.000000001
 43
0.0000000001
 44
0.00000001
 40
0.0
 40
0.0
 40
0.0
 40
0.0
 40
0.1790125774359552
 40
0.3991461008683191
 40
0.3991461008683191
 40
0.3991461008683191
 40
0.3991461008683191
 10
-46.79360776256021
 20
214.4030576035206
 30
0.0
 10
-46.84099766304801
 20
214.4431591764611
 30
0.0
 10
-46.94666337410364
 20
214.5325740586665
 30
0.0
 10
-46.95522021689602
 20
214.6722074567217
 30
0.0
 10
-46.95993940139962
 20
214.7492168357808
 30
0.0
 11
-46.79360776256021
 21
214.4030576035206
 31
0.0
 11
-46.91624476280461
 21
214.5334633933919
 31
0.0
 11
-46.95993940139962
 21
214.7492168357808
 31
0.0
  0
SPLINE
  5
24C
330
1F
100
AcDbEntity
  8
0
  6
Continuous
 62
     7
100
AcDbSpline
210
0.0
220
0.0
230
1.0
 70
     8
 71
     3
 72
     9
 73
     5
 74
     3
 42
0.000000001
 43
0.0000000001
 44
0.00000001
 40
0.0
 40
0.0
 40
0.0
 40
0.0
 40
0.1581116697578965
 40
0.2948250184245192
 40
0.2948250184245192
 40
0.2948250184245192
 40
0.2948250184245192
 10
-46.50739106144021
 20
214.4212347473384
 30
0.0
 10
-46.55773014093437
 20
214.4000734293278
 30
0.0
 10
-46.65159557481036
 20
214.360614716413
 30
0.0
 10
-46.74861764583957
 20
214.3896114947095
 30
0.0
 10
-46.79360776256021
 20
214.4030576035206
 30
0.0
 11
-46.50739106144021
 21
214.4212347473384
 31
0.0
 11
-46.65931617284581
 21
214.3774390697772
 31
0.0
 11
-46.79360776256021
 21
214.4030576035206
 31
0.0
  0
SPLINE
  5
24D
330
1F
100
AcDbEntity
  8
0
  6
Continuous
 62
     2
100
AcDbSpline
210
0.0
220
0.0
230
1.0
 70
     8
 71
     3
 72
     9
 73
     5
 74
     3
 42
0.000000001
 43
0.0000000001
 44
0.00000001
 40
0.0
 40
0.0
 40
0.0
 40
0.0
 40
0.1029638051847181
 40
0.2383355350531721
 40
0.2383355350531721
 40
0.2383355350531721
 40
0.2383355350531721
 10
-51.05613347911051
 20
232.2502645591267
 30
0.0
 10
-51.06562552921766
 20
232.2159276563474
 30
0.0
 10
-51.08759727543446
 20
232.1364462971525
 30
0.0
 10
-51.16092870616232
 20
232.09629392375
 30
0.0
 10
-51.20258008851732
 20
232.0734878638301
 30
0.0
 11
-51.05613347911051
 21
232.2502645591267
 31
0.0
 11
-51.0941951173804
 21
232.1545939919221
 31
0.0
 11
-51.20258008851732
 21
232.0734878638301
 31
0.0
  0
SPLINE
  5
24E
330
1F
100
AcDbEntity
  8
0
  6
Continuous
 62
     2
100
AcDbSpline
210
0.0
220
0.0
230
1.0
 70
     8
 71
     3
 72
    11
 73
     7
 74
     5
 42
0.000000001
 43
0.0000000001
 44
0.00000001
 40
0.0
 40
0.0
 40
0.0
 40
0.0
 40
0.1686072922739675
 40
0.3584027929230995
 40
0.5529356218803175
 40
0.7341089145548145
 40
0.7341089145548145
 40
0.7341089145548145
 40
0.7341089145548145
 10
-51.55613347911051
 20
232.6832772610188
 30
0.0
 10
-51.50876948057223
 20
232.6521911120563
 30
0.0
 10
-51.408089447335
 20
232.5861123291922
 30
0.0
 10
-51.30011905079179
 20
232.4329085465417
 30
0.0
 10
-51.22040141477721
 20
232.2595082680857
 30
0.0
 10
-51.20837801454449
 20
232.1340071229976
 30
0.0
 10
-51.20258008851732
 20
232.0734878638301
 30
0.0
 11
-51.55613347911051
 21
232.6832772610188
 31
0.0
 11
-51.42083486544998
 21
232.5826656085373
 31
0.0
 11
-51.30613347911055
 21
232.4314507769745
 31
0.0
 11
-51.22949373104101
 21
232.2526509682791
 31
0.0
 11
-51.20258008851732
 21
232.0734878638301
 31
0.0
  0
SPLINE
  5
24F
330
1F
100
AcDbEntity
  8
0
  6
Continuous
 62
     7
100
AcDbSpline
210
0.0
220
0.0
230
1.0
 70
     8
 71
     3
 72
    11
 73
     7
 74
     5
 42
0.000000001
 43
0.0000000001
 44
0.00000001
 40
0.0
 40
0.0
 40
0.0
 40
0.0
 40
0.4800957845485032
 40
0.9447455692359554
 40
1.335225560636707
 40
1.644964922417935
 40
1.644964922417935
 40
1.644964922417935
 40
1.644964922417935
 10
-64.31662544349331
 20
227.4453801657645
 30
0.0
 10
-64.36715476597483
 20
227.5990844984285
 30
0.0
 10
-64.46658775491747
 20
227.9015480680184
 30
0.0
 10
-64.75196693650591
 20
228.2455313684639
 30
0.0
 10
-65.09632690028744
 20
228.4836173082728
 30
0.0
 10
-65.33347455586198
 20
228.4376164747165
 30
0.0
 10
-65.43837591715493
 20
228.4172681747099
 30
0.0
 11
-64.31662544349331
 21
227.4453801657645
 31
0.0
 11
-64.4946801945654
 21
227.8912371640269
 31
0.0
 11
-64.78849456764138
 21
228.2511990207439
 31
0.0
 11
-65.12957089258438
 21
228.4413083883176
 31
0.0
 11
-65.43837591715493
 21
228.4172681747099
 31
0.0
  0
SPLINE
  5
250
330
1F
100
AcDbEntity
  8
0
  6
Continuous
 62
     7
100
AcDbSpline
210
0.0
220
0.0
230
1.0
 70
     8
 71
     3
 72
     9
 73
     5
 74
     3
 42
0.000000001
 43
0.0000000001
 44
0.00000001
 40
0.0
 40
0.0
 40
0.0
 40
0.0
 40
0.2201335234323709
 40
0.3991461008683809
 40
0.3991461008683809
 40
0.3991461008683809
 40
0.3991461008683809
 10
-43.77795888606021
 20
225.6239994220197
 30
0.0
 10
-43.78267807056382
 20
225.7010088010787
 30
0.0
 10
-43.79123491335623
 20
225.8406421991341
 30
0.0
 10
-43.89690062441189
 20
225.9300570813394
 30
0.0
 10
-43.94429052489971
 20
225.9701586542799
 30
0.0
 11
-43.77795888606021
 21
225.6239994220197
 31
0.0
 11
-43.82165352465526
 21
225.8397528644086
 31
0.0
 11
-43.94429052489971
 21
225.9701586542799
 31
0.0
  0
SPLINE
  5
251
330
1F
100
AcDbEntity
  8
0
  6
Continuous
 62
     7
100
AcDbSpline
210
0.0
220
0.0
230
1.0
 70
     8
 71
     3
 72
     9
 73
     5
 74
     3
 42
0.000000001
 43
0.0000000001
 44
0.00000001
 40
0.0
 40
0.0
 40
0.0
 40
0.0
 40
0.1367133486665895
 40
0.2948250184245311
 40
0.2948250184245311
 40
0.2948250184245311
 40
0.2948250184245311
 10
-43.94429052489971
 20
225.9701586542799
 30
0.0
 10
-43.98928064162034
 20
225.983604763091
 30
0.0
 10
-44.08630271264956
 20
226.0126015413875
 30
0.0
 10
-44.18016814652552
 20
225.9731428284726
 30
0.0
 10
-44.2305072260197
 20
225.951981510462
 30
0.0
 11
-43.94429052489971
 21
225.9701586542799
 31
0.0
 11
-44.07858211461409
 21
225.9957771880233
 31
0.0
 11
-44.2305072260197
 21
225.951981510462
 31
0.0
  0
SPLINE
  5
252
330
1F
100
AcDbEntity
  8
0
  6
Continuous
 62
     7
100
AcDbSpline
210
0.0
220
0.0
230
1.0
 70
     8
 71
     3
 72
     9
 73
     5
 74
     3
 42
0.000000001
 43
0.0000000001
 44
0.00000001
 40
0.0
 40
0.0
 40
0.0
 40
0.0
 40
0.1581116697578838
 40
0.2948250184245448
 40
0.2948250184245448
 40
0.2948250184245448
 40
0.2948250184245448
 10
-147.4926089385596
 20
277.5830323667332
 30
0.0
 10
-147.4422698590654
 20
277.6041936847437
 30
0.0
 10
-147.3484044251895
 20
277.6436523976587
 30
0.0
 10
-147.2513823541603
 20
277.6146556193621
 30
0.0
 10
-147.2063922374396
 20
277.6012095105511
 30
0.0
 11
-147.4926089385596
 21
277.5830323667332
 31
0.0
 11
-147.340683827154
 21
277.6268280442945
 31
0.0
 11
-147.2063922374396
 21
277.6012095105511
 31
0.0
  0
SPLINE
  5
253
330
1F
100
AcDbEntity
  8
0
  6
Continuous
 62
     7
100
AcDbSpline
210
0.0
220
0.0
230
1.0
 70
     8
 71
     3
 72
     9
 73
     5
 74
     3
 42
0.000000001
 43
0.0000000001
 44
0.00000001
 40
0.0
 40
0.0
 40
0.0
 40
0.0
 40
0.1790125774360587
 40
0.3991461008683655
 40
0.3991461008683655
 40
0.3991461008683655
 40
0.3991461008683655
 10
-150.0557094751004
 20
266.0341084597917
 30
0.0
 10
-150.1030993755882
 20
266.0742100327323
 30
0.0
 10
-150.2087650866438
 20
266.1636249149376
 30
0.0
 10
-150.2173219294362
 20
266.3032583129929
 30
0.0
 10
-150.2220411139398
 20
266.380267692052
 30
0.0
 11
-150.0557094751004
 21
266.0341084597917
 31
0.0
 11
-150.1783464753448
 21
266.1645142496631
 31
0.0
 11
-150.2220411139398
 21
266.380267692052
 31
0.0
  0
SPLINE
  5
254
330
1F
100
AcDbEntity
  8
0
  6
Continuous
 62
     7
100
AcDbSpline
210
0.0
220
0.0
230
1.0
 70
     8
 71
     3
 72
    11
 73
     7
 74
     5
 42
0.000000001
 43
0.0000000001
 44
0.00000001
 40
0.0
 40
0.0
 40
0.0
 40
0.0
 40
0.2158173344973902
 40
0.4587555762474194
 40
0.7077575980550895
 40
0.9396594128107054
 40
0.9396594128107054
 40
0.9396594128107054
 40
0.9396594128107054
 10
-149.7694927739804
 20
276.4445904490231
 30
0.0
 10
-149.830118692218
 20
276.4048001782797
 30
0.0
 10
-149.9589891377354
 20
276.3202193393706
 30
0.0
 10
-150.0971912441049
 20
276.12411849541
 30
0.0
 10
-150.1992298204801
 20
275.9021661391092
 30
0.0
 10
-150.2146197686207
 20
275.7415246723999
 30
0.0
 10
-150.2220411139397
 20
275.6640600206213
 30
0.0
 11
-149.7694927739804
 21
276.4445904490231
 31
0.0
 11
-149.9426749994658
 21
276.3158075338465
 31
0.0
 11
-150.0894927739803
 21
276.1222525494462
 31
0.0
 11
-150.1875916515094
 21
275.893388794316
 31
0.0
 11
-150.2220411139397
 21
275.6640600206213
 31
0.0
  0
SPLINE
  5
255
330
1F
100
AcDbEntity
  8
0
  6
Continuous
 62
     2
100
AcDbSpline
210
0.0
220
0.0
230
1.0
 70
     8
 71
     3
 72
     9
 73
     5
 74
     3
 42
0.000000001
 43
0.0000000001
 44
0.00000001
 40
0.0
 40
0.0
 40
0.0
 40
0.0
 40
0.1235247414899151
 40
0.2303320446272595
 40
0.2303320446272595
 40
0.2303320446272595
 40
0.2303320446272595
 10
-137.4941190525835
 20
275.6522700477564
 30
0.0
 10
-137.4547916468906
 20
275.6688023273841
 30
0.0
 10
-137.3814592763854
 20
275.6996294425805
 30
0.0
 10
-137.3056607833542
 20
275.6769757138228
 30
0.0
 10
-137.2705122548335
 20
275.6664709413642
 30
0.0
 11
-137.4941190525835
 21
275.6522700477564
 31
0.0
 11
-137.3754275592979
 21
275.6864854208512
 31
0.0
 11
-137.2705122548335
 21
275.6664709413642
 31
0.0
  0
SPLINE
  5
256
330
1F
100
AcDbEntity
  8
0
  6
Continuous
 62
     2
100
AcDbSpline
210
0.0
220
0.0
230
1.0
 70
     8
 71
     3
 72
     9
 73
     5
 74
     3
 42
0.000000001
 43
0.0000000001
 44
0.00000001
 40
0.0
 40
0.0
 40
0.0
 40
0.0
 40
0.1235247414898878
 40
0.2303320446272601
 40
0.2303320446272601
 40
0.2303320446272601
 40
0.2303320446272601
 10
-137.4941190525835
 20
275.6522700477564
 30
0.0
 10
-137.5334464582764
 20
275.6688023273841
 30
0.0
 10
-137.6067788287816
 20
275.6996294425804
 30
0.0
 10
-137.6825773218128
 20
275.6769757138229
 30
0.0
 10
-137.7177258503335
 20
275.6664709413642
 30
0.0
 11
-137.4941190525835
 21
275.6522700477564
 31
0.0
 11
-137.6128105458691
 21
275.6864854208512
 31
0.0
 11
-137.7177258503335
 21
275.6664709413642
 31
0.0
  0
SPLINE
  5
257
330
1F
100
AcDbEntity
  8
0
  6
Continuous
 62
     2
100
AcDbSpline
210
0.0
220
0.0
230
1.0
 70
     8
 71
     3
 72
     9
 73
     5
 74
     3
 42
0.000000001
 43
0.0000000001
 44
0.00000001
 40
0.0
 40
0.0
 40
0.0
 40
0.0
 40
0.1353717298683914
 40
0.238335535052996
 40
0.238335535052996
 40
0.238335535052996
 40
0.238335535052996
 10
-142.7974199114827
 20
259.5772258596484
 30
0.0
 10
-142.8390712938377
 20
259.6000319195683
 30
0.0
 10
-142.9124027245654
 20
259.6401842929709
 30
0.0
 10
-142.9343744707822
 20
259.7196656521656
 30
0.0
 10
-142.9438665208894
 20
259.7540025549449
 30
0.0
 11
-142.7974199114827
 21
259.5772258596484
 31
0.0
 11
-142.9058048826195
 21
259.6583319877404
 31
0.0
 11
-142.9438665208894
 21
259.7540025549449
 31
0.0
  0
SPLINE
  5
258
330
1F
100
AcDbEntity
  8
0
  6
Continuous
 62
     2
100
AcDbSpline
210
0.0
220
0.0
230
1.0
 70
     8
 71
     3
 72
     9
 73
     5
 74
     3
 42
0.000000001
 43
0.0000000001
 44
0.00000001
 40
0.0
 40
0.0
 40
0.0
 40
0.0
 40
0.1353717298684254
 40
0.2383355350530829
 40
0.2383355350530829
 40
0.2383355350530829
 40
0.2383355350530829
 10
-142.7974199114827
 20
272.5676069164147
 30
0.0
 10
-142.8390712938377
 20
272.5904129763347
 30
0.0
 10
-142.9124027245654
 20
272.6305653497373
 30
0.0
 10
-142.9343744707822
 20
272.710046708932
 30
0.0
 10
-142.9438665208894
 20
272.7443836117113
 30
0.0
 11
-142.7974199114827
 21
272.5676069164147
 31
0.0
 11
-142.9058048826195
 21
272.6487130445068
 31
0.0
 11
-142.9438665208894
 21
272.7443836117113
 31
0.0
  0
SPLINE
  5
259
330
1F
100
AcDbEntity
  8
0
  6
Continuous
 62
     2
100
AcDbSpline
210
0.0
220
0.0
230
1.0
 70
     8
 71
     3
 72
     9
 73
     5
 74
     3
 42
0.000000001
 43
0.0000000001
 44
0.00000001
 40
0.0
 40
0.0
 40
0.0
 40
0.0
 40
0.1235247414898563
 40
0.2303320446271342
 40
0.2303320446271342
 40
0.2303320446271342
 40
0.2303320446271342
 10
-142.4438665208894
 20
273.1773963136036
 30
0.0
 10
-142.4831939265823
 20
273.1939285932312
 30
0.0
 10
-142.5565262970875
 20
273.2247557084276
 30
0.0
 10
-142.6323247901187
 20
273.20210197967
 30
0.0
 10
-142.6674733186393
 20
273.1915972072113
 30
0.0
 11
-142.4438665208894
 21
273.1773963136036
 31
0.0
 11
-142.562558014175
 21
273.2116116866983
 31
0.0
 11
-142.6674733186393
 21
273.1915972072113
 31
0.0
  0
SPLINE
  5
25A
330
1F
100
AcDbEntity
  8
0
  6
Continuous
 62
     2
100
AcDbSpline
210
0.0
220
0.0
230
1.0
 70
     8
 71
     3
 72
    11
 73
     7
 74
     5
 42
0.000000001
 43
0.0000000001
 44
0.00000001
 40
0.0
 40
0.0
 40
0.0
 40
0.0
 40
0.1811732926746146
 40
0.3757061216319306
 40
0.5655016222810259
 40
0.7341089145550445
 40
0.7341089145550445
 40
0.7341089145550445
 40
0.7341089145550445
 10
-142.7974199114827
 20
272.5676069164147
 30
0.0
 10
-142.7916219854555
 20
272.6281261755823
 30
0.0
 10
-142.7795985852227
 20
272.7536273206704
 30
0.0
 10
-142.6998809492082
 20
272.9270275991263
 30
0.0
 10
-142.5919105526648
 20
273.080231381777
 30
0.0
 10
-142.4912305194277
 20
273.146310164641
 30
0.0
 10
-142.4438665208894
 20
273.1773963136036
 30
0.0
 11
-142.7974199114827
 21
272.5676069164147
 31
0.0
 11
-142.770506268959
 21
272.7467700208638
 31
0.0
 11
-142.6938665208894
 21
272.9255698295593
 31
0.0
 11
-142.57916513455
 21
273.076784661122
 31
0.0
 11
-142.4438665208894
 21
273.1773963136036
 31
0.0
  0
SPLINE
  5
25B
330
1F
100
AcDbEntity
  8
0
  6
Continuous
 62
     2
100
AcDbSpline
210
0.0
220
0.0
230
1.0
 70
     8
 71
     3
 72
     9
 73
     5
 74
     3
 42
0.000000001
 43
0.0000000001
 44
0.00000001
 40
0.0
 40
0.0
 40
0.0
 40
0.0
 40
0.1068073031374108
 40
0.2303320446272398
 40
0.2303320446272398
 40
0.2303320446272398
 40
0.2303320446272398
 10
-126.310357146442
 20
270.1863933871682
 30
0.0
 10
-126.3455056749627
 20
270.1968981596268
 30
0.0
 10
-126.4213041679939
 20
270.2195518883845
 30
0.0
 10
-126.494636538499
 20
270.1887247731883
 30
0.0
 10
-126.533963944192
 20
270.1721924935606
 30
0.0
 11
-126.310357146442
 21
270.1863933871682
 31
0.0
 11
-126.4152724509064
 21
270.2064078666553
 31
0.0
 11
-126.533963944192
 21
270.1721924935606
 31
0.0
  0
SPLINE
  5
25C
330
1F
100
AcDbEntity
  8
0
  6
Continuous
 62
     2
100
AcDbSpline
210
0.0
220
0.0
230
1.0
 70
     8
 71
     3
 72
     9
 73
     5
 74
     3
 42
0.000000001
 43
0.0000000001
 44
0.00000001
 40
0.0
 40
0.0
 40
0.0
 40
0.0
 40
0.2014152446139925
 40
0.4285751226960103
 40
0.4285751226960103
 40
0.4285751226960103
 40
0.4285751226960103
 10
-126.533963944192
 20
270.1721924935606
 30
0.0
 10
-126.4775377516304
 20
270.1340133308186
 30
0.0
 10
-126.357473057507
 20
270.0527749800976
 30
0.0
 10
-126.2879636516959
 20
269.9251903834451
 30
0.0
 10
-126.2511212317174
 20
269.8575660565665
 30
0.0
 11
-126.533963944192
 21
270.1721924935606
 31
0.0
 11
-126.3758513645722
 21
270.0474186438423
 31
0.0
 11
-126.2511212317174
 21
269.8575660565665
 31
0.0
  0
SPLINE
  5
25D
330
1F
100
AcDbEntity
  8
0
  6
Continuous
 62
     2
100
AcDbSpline
210
0.0
220
0.0
230
1.0
 70
     8
 71
     3
 72
    12
 73
     8
 74
     6
 42
0.000000001
 43
0.0000000001
 44
0.00000001
 40
0.0
 40
0.0
 40
0.0
 40
0.0
 40
0.0089240287542922
 40
0.0336601812440148
 40
0.0734787711439713
 40
0.1274198066386026
 40
0.1944968215309577
 40
0.1944968215309577
 40
0.1944968215309577
 40
0.1944968215309577
 10
-126.0812474833938
 20
269.9514244762244
 30
0.0
 10
-126.0833083982488
 20
269.9492639173556
 30
0.0
 10
-126.091081862932
 20
269.9411145767148
 30
0.0
 10
-126.1133770127558
 20
269.9300250939667
 30
0.0
 10
-126.1473729840719
 20
269.9103084777717
 30
0.0
 10
-126.1951831384174
 20
269.8858266220085
 30
0.0
 10
-126.2311730211113
 20
269.8676441258924
 30
0.0
 10
-126.2511212317174
 20
269.8575660565665
 30
0.0
 11
-126.0812474833938
 21
269.9514244762244
 31
0.0
 11
-126.0876017189008
 21
269.9451585377687
 31
0.0
 11
-126.1086440110851
 21
269.9321547258972
 31
0.0
 11
-126.1434965603483
 21
269.9128980412877
 31
0.0
 11
-126.1912815670919
 21
269.8878734846182
 31
0.0
 11
-126.2511212317174
 21
269.8575660565665
 31
0.0
  0
SPLINE
  5
25E
330
1F
100
AcDbEntity
  8
0
  6
Continuous
 62
     2
100
AcDbSpline
210
0.0
220
0.0
230
1.0
 70
     8
 71
     3
 72
    11
 73
     7
 74
     5
 42
0.000000001
 43
0.0000000001
 44
0.00000001
 40
0.0
 40
0.0
 40
0.0
 40
0.0
 40
1.351778571083861
 40
2.83194023076593
 40
4.404332782140751
 40
6.020647755103114
 40
6.020647755103114
 40
6.020647755103114
 40
6.020647755103114
 10
-122.2913232570729
 20
265.4527959386478
 30
0.0
 10
-122.680926074144
 20
265.6821629098395
 30
0.0
 10
-123.4971336276582
 20
266.1626806399191
 30
0.0
 10
-124.5509037812962
 20
267.2013140696802
 30
0.0
 10
-125.512368312372
 20
268.4326297561616
 30
0.0
 10
-126.0026192976006
 20
269.3782455349316
 30
0.0
 10
-126.2511212317174
 20
269.8575660565665
 30
0.0
 11
-122.2913232570729
 21
265.4527959386478
 31
0.0
 11
-123.4285420477505
 21
266.183575475048
 31
0.0
 11
-124.5049176191906
 21
267.1995942615074
 31
0.0
 11
-125.4628608647467
 21
268.4464956524919
 31
0.0
 11
-126.2511212317174
 21
269.8575660565665
 31
0.0
  0
SPLINE
  5
25F
330
1F
100
AcDbEntity
  8
0
  6
Continuous
 62
     7
100
AcDbSpline
210
0.0
220
0.0
230
1.0
 70
     8
 71
     3
 72
    15
 73
    11
 74
     9
 42
0.000000001
 43
0.0000000001
 44
0.00000001
 40
0.0
 40
0.0
 40
0.0
 40
0.0
 40
0.1421188331622019
 40
0.2842789877460717
 40
1.688285251342015
 40
2.784645679182934
 40
3.518366511735867
 40
4.181551784978322
 40
5.081136554288824
 40
6.120562021809516
 40
6.120562021809516
 40
6.120562021809516
 40
6.120562021809516
 10
-126.0812474833938
 20
269.9514244762244
 30
0.0
 10
-126.0609866189108
 20
269.9086016984575
 30
0.0
 10
-126.0204589860962
 20
269.8229436982557
 30
0.0
 10
-125.7720843870959
 20
269.3179652884115
 30
0.0
 10
-125.3318601355742
 20
268.5520617934202
 30
0.0
 10
-124.6941070783477
 20
267.6808646129336
 30
0.0
 10
-124.1460306001591
 20
267.0548860393268
 30
0.0
 10
-123.5999504468648
 20
266.518242576601
 30
0.0
 10
-122.9327506694157
 20
265.9583626152003
 30
0.0
 10
-122.3695992881307
 20
265.6384754696836
 30
0.0
 10
-122.0677164593229
 20
265.4669968322555
 30
0.0
 11
-126.0812474833938
 21
269.9514244762244
 31
0.0
 11
-126.0201413568574
 21
269.8231131209619
 31
0.0
 11
-125.9574682049434
 21
269.695513804829
 31
0.0
 11
-125.2564804127096
 21
268.4790230709357
 31
0.0
 11
-124.6077350684139
 21
267.5952042719962
 31
0.0
 11
-124.1236013596337
 21
267.0438778588624
 31
0.0
 11
-123.6509262230015
 21
266.5786973313216
 31
0.0
 11
-122.9544016167541
 21
266.0093940444233
 31
0.0
 11
-122.0677164593229
 21
265.4669968322555
 31
0.0
  0
SPLINE
  5
260
330
1F
100
AcDbEntity
  8
0
  6
Continuous
 62
     2
100
AcDbSpline
210
0.0
220
0.0
230
1.0
 70
     8
 71
     3
 72
     9
 73
     5
 74
     3
 42
0.000000001
 43
0.0000000001
 44
0.00000001
 40
0.0
 40
0.0
 40
0.0
 40
0.0
 40
0.1398535755228169
 40
0.3118328901052981
 40
0.3118328901052981
 40
0.3118328901052981
 40
0.3118328901052981
 10
-142.6674733186394
 20
259.3067889594449
 30
0.0
 10
-142.7044966782369
 20
259.3381183131705
 30
0.0
 10
-142.787048011361
 20
259.4079736921263
 30
0.0
 10
-142.7937330486021
 20
259.5170622824681
 30
0.0
 10
-142.7974199114827
 20
259.5772258596484
 30
0.0
 11
-142.6674733186394
 21
259.3067889594449
 31
0.0
 11
-142.7632834750803
 21
259.4086684827819
 31
0.0
 11
-142.7974199114827
 21
259.5772258596484
 31
0.0
  0
SPLINE
  5
261
330
1F
100
AcDbEntity
  8
0
  6
Continuous
 62
     2
100
AcDbSpline
210
0.0
220
0.0
230
1.0
 70
     8
 71
     3
 72
     9
 73
     5
 74
     3
 42
0.000000001
 43
0.0000000001
 44
0.00000001
 40
0.0
 40
0.0
 40
0.0
 40
0.0
 40
0.1068073031373271
 40
0.2303320446272832
 40
0.2303320446272832
 40
0.2303320446272832
 40
0.2303320446272832
 10
-122.0677164593229
 20
265.4669968322555
 30
0.0
 10
-122.1028649878435
 20
265.4775016047141
 30
0.0
 10
-122.1786634808747
 20
265.5001553334719
 30
0.0
 10
-122.2519958513799
 20
265.4693282182755
 30
0.0
 10
-122.2913232570729
 20
265.4527959386478
 30
0.0
 11
-122.0677164593229
 21
265.4669968322555
 31
0.0
 11
-122.1726317637873
 21
265.4870113117426
 31
0.0
 11
-122.2913232570729
 21
265.4527959386478
 31
0.0
  0
SPLINE
  5
262
330
1F
100
AcDbEntity
  8
0
  6
Continuous
 62
     2
100
AcDbSpline
210
0.0
220
0.0
230
1.0
 70
     8
 71
     3
 72
    11
 73
     7
 74
     5
 42
0.000000001
 43
0.0000000001
 44
0.00000001
 40
0.0
 40
0.0
 40
0.0
 40
0.0
 40
1.448334183395263
 40
3.034221676067143
 40
4.718927981223485
 40
6.45069402367367
 40
6.45069402367367
 40
6.45069402367367
 40
6.45069402367367
 10
-127.594624115972
 20
262.3681328073061
 30
0.0
 10
-128.0120557057173
 20
262.6138831335983
 30
0.0
 10
-128.8865637994356
 20
263.1287235578154
 30
0.0
 10
-130.0156032494993
 20
264.241545090239
 30
0.0
 10
-131.0457438189834
 20
265.5608118969411
 30
0.0
 10
-131.5710127308247
 20
266.57397166047
 30
0.0
 10
-131.8372648030912
 20
267.0875293622189
 30
0.0
 11
-127.594624115972
 21
262.3681328073061
 31
0.0
 11
-128.8130728202694
 21
263.1511108820205
 31
0.0
 11
-129.9663323610982
 21
264.2397024389413
 31
0.0
 11
-130.992700124194
 21
265.5756682149961
 31
0.0
 11
-131.8372648030912
 21
267.0875293622189
 31
0.0
  0
SPLINE
  5
263
330
1F
100
AcDbEntity
  8
0
  6
Continuous
 62
     2
100
AcDbSpline
210
0.0
220
0.0
230
1.0
 70
     8
 71
     3
 72
    11
 73
     7
 74
     5
 42
0.000000001
 43
0.0000000001
 44
0.00000001
 40
0.0
 40
0.0
 40
0.0
 40
0.0
 40
1.351778571083945
 40
2.831940230765936
 40
4.404332782140838
 40
6.020647755103108
 40
6.020647755103108
 40
6.020647755103108
 40
6.020647755103108
 10
-127.2410707253787
 20
262.9779222044949
 30
0.0
 10
-127.6306735424498
 20
263.2072891756865
 30
0.0
 10
-128.446881095964
 20
263.6878069057663
 30
0.0
 10
-129.5006512496022
 20
264.7264403355272
 30
0.0
 10
-130.4621157806779
 20
265.9577560220088
 30
0.0
 10
-130.9523667659065
 20
266.9033718007786
 30
0.0
 10
-131.2008687000233
 20
267.3826923224135
 30
0.0
 11
-127.2410707253787
 21
262.9779222044949
 31
0.0
 11
-128.3782895160564
 21
263.7087017408951
 31
0.0
 11
-129.4546650874966
 21
264.7247205273544
 31
0.0
 11
-130.4126083330526
 21
265.971621918339
 31
0.0
 11
-131.2008687000233
 21
267.3826923224135
 31
0.0
  0
SPLINE
  5
264
330
1F
100
AcDbEntity
  8
0
  6
Continuous
 62
     7
100
AcDbSpline
210
0.0
220
0.0
230
1.0
 70
     8
 71
     3
 72
    11
 73
     7
 74
     5
 42
0.000000001
 43
0.0000000001
 44
0.00000001
 40
0.0
 40
0.0
 40
0.0
 40
0.0
 40
0.6341065255417799
 40
1.314971433521034
 40
1.979255693999586
 40
2.569381220410353
 40
2.569381220410353
 40
2.569381220410353
 40
2.569381220410353
 10
-136.2566821855072
 20
263.4154085367724
 30
0.0
 10
-136.2769749266402
 20
263.6272259442533
 30
0.0
 10
-136.3190567903353
 20
264.0664799609602
 30
0.0
 10
-136.5980685367131
 20
264.6733809344595
 30
0.0
 10
-136.9759649138468
 20
265.2095941930921
 30
0.0
 10
-137.32834505673
 20
265.4408699049281
 30
0.0
 10
-137.4941190525836
 20
265.5496714269334
 30
0.0
 11
-136.2566821855072
 21
263.4154085367724
 31
0.0
 11
-136.3508799343401
 21
264.0424794023439
 31
0.0
 11
-136.6191190525836
 21
264.6682787327783
 31
0.0
 11
-137.0205739047717
 21
265.1975306432477
 31
0.0
 11
-137.4941190525836
 21
265.5496714269334
 31
0.0
  0
SPLINE
  5
265
330
1F
100
AcDbEntity
  8
0
  6
Continuous
 62
     7
100
AcDbSpline
210
0.0
220
0.0
230
1.0
 70
     8
 71
     3
 72
    11
 73
     7
 74
     5
 42
0.000000001
 43
0.0000000001
 44
0.00000001
 40
0.0
 40
0.0
 40
0.0
 40
0.0
 40
0.6341065255418403
 40
1.314971433521065
 40
1.979255693999616
 40
2.569381220410383
 40
2.569381220410383
 40
2.569381220410383
 40
2.569381220410383
 10
-136.6102355761004
 20
263.2386318414757
 30
0.0
 10
-136.6305283172333
 20
263.4504492489565
 30
0.0
 10
-136.6726101809285
 20
263.8897032656635
 30
0.0
 10
-136.9516219273064
 20
264.4966042391628
 30
0.0
 10
-137.32951830444
 20
265.0328174977955
 30
0.0
 10
-137.6818984473233
 20
265.2640932096314
 30
0.0
 10
-137.8476724431769
 20
265.3728947316367
 30
0.0
 11
-136.6102355761004
 21
263.2386318414757
 31
0.0
 11
-136.7044333249333
 21
263.8657027070472
 31
0.0
 11
-136.9726724431769
 21
264.4915020374816
 31
0.0
 11
-137.3741272953649
 21
265.0207539479509
 31
0.0
 11
-137.8476724431769
 21
265.3728947316367
 31
0.0
  0
SPLINE
  5
266
330
1F
100
AcDbEntity
  8
0
  6
Continuous
 62
     2
100
AcDbSpline
210
0.0
220
0.0
230
1.0
 70
     8
 71
     3
 72
     9
 73
     5
 74
     3
 42
0.000000001
 43
0.0000000001
 44
0.00000001
 40
0.0
 40
0.0
 40
0.0
 40
0.0
 40
0.2014152446139796
 40
0.428575122696037
 40
0.428575122696037
 40
0.428575122696037
 40
0.428575122696037
 10
-131.4837114124979
 20
267.6973187594076
 30
0.0
 10
-131.4272852199363
 20
267.6591395966656
 30
0.0
 10
-131.3072205258129
 20
267.5779012459447
 30
0.0
 10
-131.2377111200017
 20
267.4503166492921
 30
0.0
 10
-131.2008687000233
 20
267.3826923224135
 30
0.0
 11
-131.4837114124979
 21
267.6973187594076
 31
0.0
 11
-131.3255988328781
 21
267.5725449096893
 31
0.0
 11
-131.2008687000233
 21
267.3826923224135
 31
0.0
  0
SPLINE
  5
267
330
1F
100
AcDbEntity
  8
0
  6
Continuous
 62
     2
100
AcDbSpline
210
0.0
220
0.0
230
1.0
 70
     8
 71
     3
 72
    11
 73
     7
 74
     5
 42
0.000000001
 43
0.0000000001
 44
0.00000001
 40
0.0
 40
0.0
 40
0.0
 40
0.0
 40
0.1745635962413571
 40
0.3691704957316949
 40
0.5542270387541408
 40
0.7016009832543642
 40
0.7016009832543642
 40
0.7016009832543642
 40
0.7016009832543642
 10
-131.2008687000233
 20
267.3826923224135
 30
0.0
 10
-131.2530701047535
 20
267.3569825343793
 30
0.0
 10
-131.3634666597989
 20
267.3026109876402
 30
0.0
 10
-131.5307152598134
 20
267.2241272834123
 30
0.0
 10
-131.6903620007324
 20
267.1507774300048
 30
0.0
 10
-131.7921429889739
 20
267.1069562670647
 30
0.0
 10
-131.8372648030912
 20
267.0875293622189
 30
0.0
 11
-131.2008687000233
 21
267.3826923224135
 31
0.0
 11
-131.3576982277028
 21
267.3060310652019
 31
0.0
 11
-131.5337114124979
 21
267.2230177882243
 31
0.0
 11
-131.702112269639
 21
267.1462905079288
 31
0.0
 11
-131.8372648030912
 21
267.0875293622189
 31
0.0
  0
SPLINE
  5
268
330
1F
100
AcDbEntity
  8
0
  6
Continuous
 62
     2
100
AcDbSpline
210
0.0
220
0.0
230
1.0
 70
     8
 71
     3
 72
    11
 73
     7
 74
     5
 42
0.000000001
 43
0.0000000001
 44
0.00000001
 40
0.0
 40
0.0
 40
0.0
 40
0.0
 40
0.181173292674498
 40
0.375706121631773
 40
0.5655016222808963
 40
0.7341089145548809
 40
0.7341089145548809
 40
0.7341089145548809
 40
0.7341089145548809
 10
-131.8372648030912
 20
267.0875293622189
 30
0.0
 10
-131.831466877064
 20
267.1480486213864
 30
0.0
 10
-131.8194434768313
 20
267.2735497664745
 30
0.0
 10
-131.7397258408167
 20
267.4469500449304
 30
0.0
 10
-131.6317554442734
 20
267.6001538275811
 30
0.0
 10
-131.5310754110362
 20
267.666232610445
 30
0.0
 10
-131.4837114124979
 20
267.6973187594076
 30
0.0
 11
-131.8372648030912
 21
267.0875293622189
 31
0.0
 11
-131.8103511605675
 21
267.2666924666678
 31
0.0
 11
-131.7337114124979
 21
267.4454922753633
 31
0.0
 11
-131.6190100261585
 21
267.5967071069261
 31
0.0
 11
-131.4837114124979
 21
267.6973187594076
 31
0.0
  0
SPLINE
  5
269
330
1F
100
AcDbEntity
  8
0
  6
Continuous
 62
     7
100
AcDbSpline
210
0.0
220
0.0
230
1.0
 70
     8
 71
     3
 72
     9
 73
     5
 74
     3
 42
0.000000001
 43
0.0000000001
 44
0.00000001
 40
0.0
 40
0.0
 40
0.0
 40
0.0
 40
0.3562783083133197
 40
0.7602847534120609
 40
0.7602847534120609
 40
0.7602847534120609
 40
0.7602847534120609
 10
-135.6508350886788
 20
261.4189340579001
 30
0.0
 10
-135.5519114711794
 20
261.4906082023755
 30
0.0
 10
-135.3408121385843
 20
261.6435581929916
 30
0.0
 10
-135.2685557022297
 20
261.8952385458531
 30
0.0
 10
-135.2301594840557
 20
262.0289785531826
 30
0.0
 11
-135.6508350886788
 21
261.4189340579001
 31
0.0
 11
-135.3845537105531
 21
261.6556373790319
 31
0.0
 11
-135.2301594840557
 21
262.0289785531826
 31
0.0
  0
SPLINE
  5
26A
330
1F
100
AcDbEntity
  8
0
  6
Continuous
 62
     7
100
AcDbSpline
210
0.0
220
0.0
230
1.0
 70
     8
 71
     3
 72
    11
 73
     7
 74
     5
 42
0.000000001
 43
0.0000000001
 44
0.00000001
 40
0.0
 40
0.0
 40
0.0
 40
0.0
 40
0.4800957845484768
 40
0.944745569235871
 40
1.335225560636609
 40
1.644964922417854
 40
1.644964922417854
 40
1.644964922417854
 40
1.644964922417854
 10
-134.9866754154057
 20
261.9072365188576
 30
0.0
 10
-134.9361460929242
 20
261.7535321861936
 30
0.0
 10
-134.8367131039816
 20
261.4510686166037
 30
0.0
 10
-134.5513339223933
 20
261.1070853161583
 30
0.0
 10
-134.2069739586117
 20
260.8689993763493
 30
0.0
 10
-133.9698263030371
 20
260.9150002099057
 30
0.0
 10
-133.8649249417442
 20
260.9353485099123
 30
0.0
 11
-134.9866754154057
 21
261.9072365188576
 31
0.0
 11
-134.8086206643337
 21
261.4613795205952
 31
0.0
 11
-134.5148062912577
 21
261.1014176638782
 31
0.0
 11
-134.1737299663147
 21
260.9113082963045
 31
0.0
 11
-133.8649249417442
 21
260.9353485099123
 31
0.0
  0
SPLINE
  5
26B
330
1F
100
AcDbEntity
  8
0
  6
Continuous
 62
     7
100
AcDbSpline
210
0.0
220
0.0
230
1.0
 70
     8
 71
     3
 72
    13
 73
     9
 74
     7
 42
0.000000001
 43
0.0000000001
 44
0.00000001
 40
0.0
 40
0.0
 40
0.0
 40
0.0
 40
0.3342154301235823
 40
0.7634083440549841
 40
1.270092900007216
 40
1.776777455959461
 40
2.205970369890784
 40
2.540185800014288
 40
2.540185800014288
 40
2.540185800014288
 40
2.540185800014288
 10
-133.511371551151
 20
261.1121252052089
 30
0.0
 10
-133.4276141148799
 20
261.191665203631
 30
0.0
 10
-133.236297032095
 20
261.373348921503
 30
0.0
 10
-133.2421052610451
 20
261.8331857535201
 30
0.0
 10
-133.3871174965037
 20
262.2922862212825
 30
0.0
 10
-133.6673905294384
 20
262.6837562903067
 30
0.0
 10
-134.0317750576821
 20
262.964304972677
 30
0.0
 10
-134.2919122816505
 20
262.9202615371723
 30
0.0
 10
-134.4057987421508
 20
262.9009795872088
 30
0.0
 11
-133.511371551151
 21
261.1121252052089
 31
0.0
 11
-133.2974368486416
 21
261.3688972796286
 31
0.0
 11
-133.2606366998756
 21
261.7965096252216
 31
0.0
 11
-133.4108719631002
 21
262.2804089879842
 31
0.0
 11
-133.7078502953756
 21
262.6909368162214
 31
0.0
 11
-134.0720202611095
 21
262.9180641045643
 31
0.0
 11
-134.4057987421508
 21
262.9009795872088
 31
0.0
  0
SPLINE
  5
26C
330
1F
100
AcDbEntity
  8
0
  6
Continuous
 62
     7
100
AcDbSpline
210
0.0
220
0.0
230
1.0
 70
     8
 71
     3
 72
    13
 73
     9
 74
     7
 42
0.000000001
 43
0.0000000001
 44
0.00000001
 40
0.0
 40
0.0
 40
0.0
 40
0.0
 40
0.3342154301234659
 40
0.763408344054811
 40
1.270092900007097
 40
1.776777455959434
 40
2.205970369890757
 40
2.540185800014267
 40
2.540185800014267
 40
2.540185800014267
 40
2.540185800014267
 10
-133.8649249417442
 20
260.9353485099123
 30
0.0
 10
-133.7811675054732
 20
261.0148885083344
 30
0.0
 10
-133.5898504226884
 20
261.1965722262063
 30
0.0
 10
-133.5956586516384
 20
261.6564090582235
 30
0.0
 10
-133.740670887097
 20
262.1155095259858
 30
0.0
 10
-134.0209439200316
 20
262.5069795950102
 30
0.0
 10
-134.3853284482754
 20
262.7875282773805
 30
0.0
 10
-134.6454656722438
 20
262.7434848418757
 30
0.0
 10
-134.7593521327441
 20
262.7242028919121
 30
0.0
 11
-133.8649249417442
 21
260.9353485099123
 31
0.0
 11
-133.6509902392349
 21
261.192120584332
 31
0.0
 11
-133.614190090469
 21
261.6197329299249
 31
0.0
 11
-133.7644253536935
 21
262.1036322926875
 31
0.0
 11
-134.0614036859689
 21
262.5141601209249
 31
0.0
 11
-134.4255736517028
 21
262.7412874092678
 31
0.0
 11
-134.7593521327441
 21
262.7242028919121
 31
0.0
  0
SPLINE
  5
26D
330
1F
100
AcDbEntity
  8
0
  6
Continuous
 62
     7
100
AcDbSpline
210
0.0
220
0.0
230
1.0
 70
     8
 71
     3
 72
    11
 73
     7
 74
     5
 42
0.000000001
 43
0.0000000001
 44
0.00000001
 40
0.0
 40
0.0
 40
0.0
 40
0.0
 40
0.3545323837644133
 40
0.6951764029428293
 40
0.9810587943887987
 40
1.208905211471054
 40
1.208905211471054
 40
1.208905211471054
 40
1.208905211471054
 10
-136.6759210010496
 20
262.0228809475424
 30
0.0
 10
-136.7154655063584
 20
262.1355837998577
 30
0.0
 10
-136.7930054211113
 20
262.3565745052089
 30
0.0
 10
-137.0059919163416
 20
262.6064899352243
 30
0.0
 10
-137.260627307153
 20
262.7773284312076
 30
0.0
 10
-137.4343032966525
 20
262.7425983204888
 30
0.0
 10
-137.5113311976746
 20
262.7271949898461
 30
0.0
 11
-136.6759210010496
 21
262.0228809475424
 31
0.0
 11
-136.8136403372567
 21
262.3495713083053
 31
0.0
 11
-137.0328712475614
 21
262.6102936838013
 31
0.0
 11
-137.2842928162148
 21
262.7463669798383
 31
0.0
 11
-137.5113311976746
 21
262.7271949898461
 31
0.0
  0
SPLINE
  5
26E
330
1F
100
AcDbEntity
  8
0
  6
Continuous
 62
     7
100
AcDbSpline
210
0.0
220
0.0
230
1.0
 70
     8
 71
     3
 72
    11
 73
     7
 74
     5
 42
0.000000001
 43
0.0000000001
 44
0.00000001
 40
0.0
 40
0.0
 40
0.0
 40
0.0
 40
0.4529332323949242
 40
0.9392653087653577
 40
1.413754065312126
 40
1.8352722980682
 40
1.8352722980682
 40
1.8352722980682
 40
1.8352722980682
 10
-136.9637889666937
 20
263.4154085367724
 30
0.0
 10
-136.9782837817844
 20
263.566706684928
 30
0.0
 10
-137.0083422600945
 20
263.8804595529874
 30
0.0
 10
-137.207636362327
 20
264.3139602484692
 30
0.0
 10
-137.4775623472247
 20
264.6969697167093
 30
0.0
 10
-137.7292624462494
 20
264.8621666569562
 30
0.0
 10
-137.8476724431769
 20
264.9398820297445
 30
0.0
 11
-136.9637889666937
 21
263.4154085367724
 31
0.0
 11
-137.0310730730029
 21
263.8633162978949
 31
0.0
 11
-137.2226724431769
 21
264.3103158196337
 31
0.0
 11
-137.5094259090255
 21
264.6883528985404
 31
0.0
 11
-137.8476724431769
 21
264.9398820297445
 31
0.0
  0
SPLINE
  5
26F
330
1F
100
AcDbEntity
  8
0
  6
Continuous
 62
     7
100
AcDbSpline
210
0.0
220
0.0
230
1.0
 70
     8
 71
     3
 72
     9
 73
     5
 74
     3
 42
0.000000001
 43
0.0000000001
 44
0.00000001
 40
0.0
 40
0.0
 40
0.0
 40
0.0
 40
0.1804600671322511
 40
0.3825007838584662
 40
0.3825007838584662
 40
0.3825007838584662
 40
0.3825007838584662
 10
-134.7593521327441
 20
262.7242028919121
 30
0.0
 10
-134.8100373843982
 20
262.6891428987823
 30
0.0
 10
-134.9174691631606
 20
262.614830185028
 30
0.0
 10
-134.9627549965556
 20
262.4918245604302
 30
0.0
 10
-134.9866754154058
 20
262.4268517611283
 30
0.0
 11
-134.7593521327441
 21
262.7242028919121
 31
0.0
 11
-134.8975750739675
 21
262.60818455244
 31
0.0
 11
-134.9866754154058
 21
262.4268517611283
 31
0.0
  0
SPLINE
  5
270
330
1F
100
AcDbEntity
  8
0
  6
Continuous
 62
     7
100
AcDbSpline
210
0.0
220
0.0
230
1.0
 70
     8
 71
     3
 72
     9
 73
     5
 74
     3
 42
0.000000001
 43
0.0000000001
 44
0.00000001
 40
0.0
 40
0.0
 40
0.0
 40
0.0
 40
0.3496339429152454
 40
0.7795822334796734
 40
0.7795822334796734
 40
0.7795822334796734
 40
0.7795822334796734
 10
-136.2279952770221
 20
261.6893709581035
 30
0.0
 10
-136.1354368769407
 20
261.7676943433378
 30
0.0
 10
-135.9290585191839
 20
261.942332775417
 30
0.0
 10
-135.9123459522035
 20
262.2150542642237
 30
0.0
 10
-135.9031287949139
 20
262.3654632086118
 30
0.0
 11
-136.2279952770221
 21
261.6893709581035
 31
0.0
 11
-135.9884698859198
 21
261.9440697664459
 31
0.0
 11
-135.9031287949139
 21
262.3654632086118
 31
0.0
  0
SPLINE
  5
271
330
1F
100
AcDbEntity
  8
0
  6
Continuous
 62
     7
100
AcDbSpline
210
0.0
220
0.0
230
1.0
 70
     8
 71
     3
 72
     9
 73
     5
 74
     3
 42
0.000000001
 43
0.0000000001
 44
0.00000001
 40
0.0
 40
0.0
 40
0.0
 40
0.0
 40
0.198726286957572
 40
0.3764275020713262
 40
0.3764275020713262
 40
0.3764275020713262
 40
0.3764275020713262
 10
-136.4334588808038
 20
261.9016498874194
 30
0.0
 10
-136.3723223014225
 20
261.8743231202846
 30
0.0
 10
-136.2565173351638
 20
261.8225607536727
 30
0.0
 10
-136.1299282758614
 20
261.8178802708766
 30
0.0
 10
-136.0701690125975
 20
261.8156707511133
 30
0.0
 11
-136.4334588808038
 21
261.9016498874194
 31
0.0
 11
-136.2470435363875
 21
261.8327916489574
 31
0.0
 11
-136.0701690125975
 21
261.8156707511133
 31
0.0
  0
SPLINE
  5
272
330
1F
100
AcDbEntity
  8
0
  6
Continuous
 62
     7
100
AcDbSpline
210
0.0
220
0.0
230
1.0
 70
     8
 71
     3
 72
     9
 73
     5
 74
     3
 42
0.000000001
 43
0.0000000001
 44
0.00000001
 40
0.0
 40
0.0
 40
0.0
 40
0.0
 40
0.4894875211769562
 40
1.091415129062737
 40
1.091415129062737
 40
1.091415129062737
 40
1.091415129062737
 10
-136.0043884792722
 20
261.2421573626035
 30
0.0
 10
-135.8748067188683
 20
261.351810102177
 30
0.0
 10
-135.585877011356
 20
261.596303903005
 30
0.0
 10
-135.5624794245496
 20
261.9781139907886
 30
0.0
 10
-135.5495754043207
 20
262.1886865133151
 30
0.0
 11
-136.0043884792722
 21
261.2421573626035
 31
0.0
 11
-135.6690529317289
 21
261.5987356942828
 31
0.0
 11
-135.5495754043207
 21
262.1886865133151
 31
0.0
  0
SPLINE
  5
273
330
1F
100
AcDbEntity
  8
0
  6
Continuous
 62
     7
100
AcDbSpline
210
0.0
220
0.0
230
1.0
 70
     8
 71
     3
 72
     9
 73
     5
 74
     3
 42
0.000000001
 43
0.0000000001
 44
0.00000001
 40
0.0
 40
0.0
 40
0.0
 40
0.0
 40
0.4323366010255012
 40
0.8061621678171059
 40
0.8061621678171059
 40
0.8061621678171059
 40
0.8061621678171059
 10
-136.787012271397
 20
261.2918604902307
 30
0.0
 10
-136.6493663496218
 20
261.233997510756
 30
0.0
 10
-136.3927030561634
 20
261.1261025587859
 30
0.0
 10
-136.1274083310068
 20
261.2053906584269
 30
0.0
 10
-136.0043884792722
 20
261.2421573626035
 30
0.0
 11
-136.787012271397
 21
261.2918604902307
 31
0.0
 11
-136.3715920448975
 21
261.1721066843988
 31
0.0
 11
-136.0043884792722
 21
261.2421573626035
 31
0.0
  0
SPLINE
  5
274
330
1F
100
AcDbEntity
  8
0
  6
Continuous
 62
     7
100
AcDbSpline
210
0.0
220
0.0
230
1.0
 70
     8
 71
     3
 72
     9
 73
     5
 74
     3
 42
0.000000001
 43
0.0000000001
 44
0.00000001
 40
0.0
 40
0.0
 40
0.0
 40
0.0
 40
0.3088118572113203
 40
0.5758301185412418
 40
0.5758301185412418
 40
0.5758301185412418
 40
0.5758301185412418
 10
-136.7870122713971
 20
261.7248731921228
 30
0.0
 10
-136.6886937560548
 20
261.6835424925869
 30
0.0
 10
-136.5053628317775
 20
261.6064746753264
 30
0.0
 10
-136.3158665994712
 20
261.6631090266142
 30
0.0
 10
-136.2279952770221
 20
261.6893709581035
 30
0.0
 11
-136.7870122713971
 21
261.7248731921228
 31
0.0
 11
-136.4902835381831
 21
261.6393347593859
 31
0.0
 11
-136.2279952770221
 21
261.6893709581035
 31
0.0
  0
SPLINE
  5
275
330
1F
100
AcDbEntity
  8
0
  6
Continuous
 62
     7
100
AcDbSpline
210
0.0
220
0.0
230
1.0
 70
     8
 71
     3
 72
    11
 73
     7
 74
     5
 42
0.000000001
 43
0.0000000001
 44
0.00000001
 40
0.0
 40
0.0
 40
0.0
 40
0.0
 40
0.3545323837645071
 40
0.6951764029428613
 40
0.9810587943888307
 40
1.208905211471133
 40
1.208905211471133
 40
1.208905211471133
 40
1.208905211471133
 10
-137.0294743916429
 20
261.8461042522457
 30
0.0
 10
-137.0690188969517
 20
261.9588071045611
 30
0.0
 10
-137.1465588117046
 20
262.1797978099124
 30
0.0
 10
-137.3595453069349
 20
262.4297132399278
 30
0.0
 10
-137.6141806977462
 20
262.6005517359109
 30
0.0
 10
-137.7878566872458
 20
262.5658216251923
 30
0.0
 10
-137.8648845882679
 20
262.5504182945496
 30
0.0
 11
-137.0294743916429
 21
261.8461042522457
 31
0.0
 11
-137.16719372785
 21
262.1727946130088
 31
0.0
 11
-137.3864246381546
 21
262.4335169885047
 31
0.0
 11
-137.6378462068081
 21
262.5695902845417
 31
0.0
 11
-137.8648845882679
 21
262.5504182945496
 31
0.0
  0
SPLINE
  5
276
330
1F
100
AcDbEntity
  8
0
  6
Continuous
 62
     7
100
AcDbSpline
210
0.0
220
0.0
230
1.0
 70
     8
 71
     3
 72
     9
 73
     5
 74
     3
 42
0.000000001
 43
0.0000000001
 44
0.00000001
 40
0.0
 40
0.0
 40
0.0
 40
0.0
 40
0.1269655068836055
 40
0.2675787641048278
 40
0.2675787641048278
 40
0.2675787641048278
 40
0.2675787641048278
 10
-137.194064195018
 20
261.2087775080497
 30
0.0
 10
-137.1582217395928
 20
261.2330234435934
 30
0.0
 10
-137.0826840723866
 20
261.2841215677265
 30
0.0
 10
-137.0478039617651
 20
261.3686641977192
 30
0.0
 10
-137.0294743916429
 20
261.4130915503534
 30
0.0
 11
-137.194064195018
 21
261.2087775080497
 31
0.0
 11
-137.0956908039777
 21
261.2890452872207
 31
0.0
 11
-137.0294743916429
 21
261.4130915503534
 31
0.0
  0
SPLINE
  5
277
330
1F
100
AcDbEntity
  8
0
  6
Continuous
 62
     7
100
AcDbSpline
210
0.0
220
0.0
230
1.0
 70
     8
 71
     3
 72
    13
 73
     9
 74
     7
 42
0.000000001
 43
0.0000000001
 44
0.00000001
 40
0.0
 40
0.0
 40
0.0
 40
0.0
 40
0.2506615720664203
 40
0.5725562541121443
 40
0.9525696739485251
 40
1.332583093784881
 40
1.654477775830529
 40
1.905139347896903
 40
1.905139347896903
 40
1.905139347896903
 40
1.905139347896903
 10
-137.8648845882679
 20
262.5504182945496
 30
0.0
 10
-137.9277026653393
 20
262.4907632958582
 30
0.0
 10
-138.0711904729926
 20
262.3545005058212
 30
0.0
 10
-138.0668343066292
 20
262.009622884421
 30
0.0
 10
-137.9580751327487
 20
261.6652975307468
 30
0.0
 10
-137.7478703541375
 20
261.3716949794378
 30
0.0
 10
-137.4745819568356
 20
261.1612834735071
 30
0.0
 10
-137.2794790402139
 20
261.1943160456074
 30
0.0
 10
-137.194064195018
 20
261.2087775080497
 30
0.0
 11
-137.8648845882679
 21
262.5504182945496
 31
0.0
 11
-138.0253356151498
 21
262.3578392387348
 31
0.0
 11
-138.0529357267243
 21
262.0371299795401
 31
0.0
 11
-137.9402592793059
 21
261.6742054574681
 31
0.0
 11
-137.7175255300994
 21
261.3663095862902
 31
0.0
 11
-137.444398055799
 21
261.1959641200331
 31
0.0
 11
-137.194064195018
 21
261.2087775080497
 31
0.0
  0
SPLINE
  5
278
330
1F
100
AcDbEntity
  8
0
  6
Continuous
 62
     2
100
AcDbSpline
210
0.0
220
0.0
230
1.0
 70
     8
 71
     3
 72
     9
 73
     5
 74
     3
 42
0.000000001
 43
0.0000000001
 44
0.00000001
 40
0.0
 40
0.0
 40
0.0
 40
0.0
 40
0.171979314582392
 40
0.3118328901050846
 40
0.3118328901050846
 40
0.3118328901050846
 40
0.3118328901050846
 10
-131.8372648030912
 20
254.0971483054525
 30
0.0
 10
-131.8335779402106
 20
254.0369847282722
 30
0.0
 10
-131.8268929029695
 20
253.9278961379304
 30
0.0
 10
-131.7443415698453
 20
253.8580407589747
 30
0.0
 10
-131.7073182102479
 20
253.8267114052492
 30
0.0
 11
-131.8372648030912
 21
254.0971483054525
 31
0.0
 11
-131.8031283666888
 21
253.9285909285861
 31
0.0
 11
-131.7073182102479
 21
253.8267114052492
 31
0.0
  0
SPLINE
  5
279
330
1F
100
AcDbEntity
  8
0
  6
Continuous
 62
     2
100
AcDbSpline
210
0.0
220
0.0
230
1.0
 70
     8
 71
     3
 72
    11
 73
     7
 74
     5
 42
0.000000001
 43
0.0000000001
 44
0.00000001
 40
0.0
 40
0.0
 40
0.0
 40
0.0
 40
0.1946545791585962
 40
0.3864748607724328
 40
0.5649635229899483
 40
0.7261230338045475
 40
0.7261230338045475
 40
0.7261230338045475
 40
0.7261230338045475
 10
-131.8372648030912
 20
254.0971483054525
 30
0.0
 10
-131.7948933052415
 20
254.0472401929474
 30
0.0
 10
-131.71076725593
 20
253.9481506729626
 30
0.0
 10
-131.5414692806914
 20
253.8588366924169
 30
0.0
 10
-131.3620816895969
 20
253.8201975474123
 30
0.0
 10
-131.2527469097029
 20
253.8558020512928
 30
0.0
 10
-131.2008687000233
 20
253.8726960233767
 30
0.0
 11
-131.8372648030912
 21
254.0971483054525
 31
0.0
 11
-131.7021122696391
 21
253.9570619113379
 31
0.0
 11
-131.5337114124979
 21
253.8652132700404
 31
0.0
 11
-131.3576982277028
 21
253.8355895809466
 31
0.0
 11
-131.2008687000233
 21
253.8726960233767
 31
0.0
  0
SPLINE
  5
27A
330
1F
100
AcDbEntity
  8
0
  6
Continuous
 62
     2
100
AcDbSpline
210
0.0
220
0.0
230
1.0
 70
     8
 71
     3
 72
    11
 73
     7
 74
     5
 42
0.000000001
 43
0.0000000001
 44
0.00000001
 40
0.0
 40
0.0
 40
0.0
 40
0.0
 40
1.29392886701507
 40
2.449000081260822
 40
3.521045652602286
 40
4.597416437703872
 40
4.597416437703872
 40
4.597416437703872
 40
4.597416437703872
 10
-127.594624115972
 20
254.5739041732461
 30
0.0
 10
-127.9939249459595
 20
254.7444390452492
 30
0.0
 10
-128.7496757416676
 20
255.0672078686158
 30
0.0
 10
-129.9420760420206
 20
255.139148910057
 30
0.0
 10
-131.0395133305069
 20
254.8382693113035
 30
0.0
 10
-131.5709909896773
 20
254.3445199849028
 30
0.0
 10
-131.8372648030912
 20
254.0971483054525
 30
0.0
 11
-127.594624115972
 21
254.5739041732461
 31
0.0
 11
-128.8130728202694
 21
255.0093748028291
 31
0.0
 11
-129.9663323610982
 21
255.0740427867372
 31
0.0
 11
-130.992700124194
 21
254.7644447737781
 31
0.0
 11
-131.8372648030912
 21
254.0971483054525
 31
0.0
  0
SPLINE
  5
27B
330
1F
100
AcDbEntity
  8
0
  6
Continuous
 62
     2
100
AcDbSpline
210
0.0
220
0.0
230
1.0
 70
     8
 71
     3
 72
     9
 73
     5
 74
     3
 42
0.000000001
 43
0.0000000001
 44
0.00000001
 40
0.0
 40
0.0
 40
0.0
 40
0.0
 40
0.1068073031373969
 40
0.2303320446272553
 40
0.2303320446272553
 40
0.2303320446272553
 40
0.2303320446272553
 10
-118.8857359439834
 20
263.8760065745857
 30
0.0
 10
-118.9208844725041
 20
263.8865113470443
 30
0.0
 10
-118.9966829655353
 20
263.909165075802
 30
0.0
 10
-119.0700153360405
 20
263.8783379606057
 30
0.0
 10
-119.1093427417334
 20
263.861805680978
 30
0.0
 11
-118.8857359439834
 21
263.8760065745857
 31
0.0
 11
-118.9906512484478
 21
263.8960210540728
 31
0.0
 11
-119.1093427417334
 21
263.861805680978
 31
0.0
  0
SPLINE
  5
27C
330
1F
100
AcDbEntity
  8
0
  6
Continuous
 62
     2
100
AcDbSpline
210
0.0
220
0.0
230
1.0
 70
     8
 71
     3
 72
     9
 73
     5
 74
     3
 42
0.000000001
 43
0.0000000001
 44
0.00000001
 40
0.0
 40
0.0
 40
0.0
 40
0.0
 40
0.1029638051846574
 40
0.2383355350532306
 40
0.2383355350532306
 40
0.2383355350532306
 40
0.2383355350532306
 10
-118.6093427417334
 20
263.4287929790859
 30
0.0
 10
-118.6188347918406
 20
263.3944560763067
 30
0.0
 10
-118.6408065380574
 20
263.3149747171118
 30
0.0
 10
-118.7141379687852
 20
263.2748223437091
 30
0.0
 10
-118.7557893511402
 20
263.2520162837892
 30
0.0
 11
-118.6093427417334
 21
263.4287929790859
 31
0.0
 11
-118.6474043800033
 21
263.3331224118814
 31
0.0
 11
-118.7557893511402
 21
263.2520162837892
 31
0.0
  0
SPLINE
  5
27D
330
1F
100
AcDbEntity
  8
0
  6
Continuous
 62
     2
100
AcDbSpline
210
0.0
220
0.0
230
1.0
 70
     8
 71
     3
 72
    11
 73
     7
 74
     5
 42
0.000000001
 43
0.0000000001
 44
0.00000001
 40
0.0
 40
0.0
 40
0.0
 40
0.0
 40
0.1811732926745542
 40
0.375706121631859
 40
0.565501622280937
 40
0.7341089145549442
 40
0.7341089145549442
 40
0.7341089145549442
 40
0.7341089145549442
 10
-118.7557893511402
 20
263.2520162837892
 30
0.0
 10
-118.7615872771674
 20
263.3125355429567
 30
0.0
 10
-118.7736106774001
 20
263.4380366880449
 30
0.0
 10
-118.8533283134146
 20
263.6114369665007
 30
0.0
 10
-118.961298709958
 20
263.7646407491515
 30
0.0
 10
-119.0619787431951
 20
263.8307195320155
 30
0.0
 10
-119.1093427417334
 20
263.861805680978
 30
0.0
 11
-118.7557893511402
 21
263.2520162837892
 31
0.0
 11
-118.7827029936639
 21
263.4311793882382
 31
0.0
 11
-118.8593427417335
 21
263.6099791969338
 31
0.0
 11
-118.9740441280729
 21
263.7611940284964
 31
0.0
 11
-119.1093427417334
 21
263.861805680978
 31
0.0
  0
SPLINE
  5
27E
330
1F
100
AcDbEntity
  8
0
  6
Continuous
 62
     2
100
AcDbSpline
210
0.0
220
0.0
230
1.0
 70
     8
 71
     3
 72
    11
 73
     7
 74
     5
 42
0.000000001
 43
0.0000000001
 44
0.00000001
 40
0.0
 40
0.0
 40
0.0
 40
0.0
 40
0.1811732926745542
 40
0.3757061216318534
 40
0.56550162228094
 40
0.7341089145550156
 40
0.7341089145550156
 40
0.7341089145550156
 40
0.7341089145550156
 10
-127.594624115972
 20
262.3681328073061
 30
0.0
 10
-127.5888261899448
 20
262.4286520664736
 30
0.0
 10
-127.5768027897121
 20
262.5541532115618
 30
0.0
 10
-127.4970851536976
 20
262.7275534900177
 30
0.0
 10
-127.3891147571543
 20
262.8807572726683
 30
0.0
 10
-127.288434723917
 20
262.9468360555324
 30
0.0
 10
-127.2410707253787
 20
262.9779222044949
 30
0.0
 11
-127.594624115972
 21
262.3681328073061
 31
0.0
 11
-127.5677104734483
 21
262.5472959117551
 31
0.0
 11
-127.4910707253787
 21
262.7260957204506
 31
0.0
 11
-127.3763693390393
 21
262.8773105520133
 31
0.0
 11
-127.2410707253787
 21
262.9779222044949
 31
0.0
  0
SPLINE
  5
27F
330
1F
100
AcDbEntity
  8
0
  6
Continuous
 62
     2
100
AcDbSpline
210
0.0
220
0.0
230
1.0
 70
     8
 71
     3
 72
    11
 73
     7
 74
     5
 42
0.000000001
 43
0.0000000001
 44
0.00000001
 40
0.0
 40
0.0
 40
0.0
 40
0.0
 40
0.1811732926745542
 40
0.3757061216318758
 40
0.5655016222809428
 40
0.73410891455495
 40
0.73410891455495
 40
0.73410891455495
 40
0.73410891455495
 10
-124.4126436006326
 20
260.7771425496363
 30
0.0
 10
-124.4068456746054
 20
260.8376618088039
 30
0.0
 10
-124.3948222743727
 20
260.963162953892
 30
0.0
 10
-124.3151046383582
 20
261.1365632323479
 30
0.0
 10
-124.2071342418147
 20
261.2897670149985
 30
0.0
 10
-124.1064542085776
 20
261.3558457978626
 30
0.0
 10
-124.0590902100393
 20
261.3869319468251
 30
0.0
 11
-124.4126436006326
 21
260.7771425496363
 31
0.0
 11
-124.3857299581089
 21
260.9563056540853
 31
0.0
 11
-124.3090902100393
 21
261.1351054627809
 31
0.0
 11
-124.1943888236998
 21
261.2863202943435
 31
0.0
 11
-124.0590902100393
 21
261.3869319468251
 31
0.0
  0
SPLINE
  5
280
330
1F
100
AcDbEntity
  8
0
  6
Continuous
 62
     2
100
AcDbSpline
210
0.0
220
0.0
230
1.0
 70
     8
 71
     3
 72
    11
 73
     7
 74
     5
 42
0.000000001
 43
0.0000000001
 44
0.00000001
 40
0.0
 40
0.0
 40
0.0
 40
0.0
 40
0.1811732926745563
 40
0.3757061216318723
 40
0.5655016222809395
 40
0.7341089145549466
 40
0.7341089145549466
 40
0.7341089145549466
 40
0.7341089145549466
 10
-123.705536819446
 20
260.7771425496363
 30
0.0
 10
-123.7113347454732
 20
260.8376618088038
 30
0.0
 10
-123.7233581457059
 20
260.963162953892
 30
0.0
 10
-123.8030757817205
 20
261.1365632323479
 30
0.0
 10
-123.9110461782638
 20
261.2897670149985
 30
0.0
 10
-124.011726211501
 20
261.3558457978626
 30
0.0
 10
-124.0590902100393
 20
261.3869319468251
 30
0.0
 11
-123.705536819446
 21
260.7771425496363
 31
0.0
 11
-123.7324504619697
 21
260.9563056540853
 31
0.0
 11
-123.8090902100393
 21
261.1351054627809
 31
0.0
 11
-123.9237915963788
 21
261.2863202943435
 31
0.0
 11
-124.0590902100393
 21
261.3869319468251
 31
0.0
  0
SPLINE
  5
281
330
1F
100
AcDbEntity
  8
0
  6
Continuous
 62
     2
100
AcDbSpline
210
0.0
220
0.0
230
1.0
 70
     8
 71
     3
 72
    11
 73
     7
 74
     5
 42
0.000000001
 43
0.0000000001
 44
0.00000001
 40
0.0
 40
0.0
 40
0.0
 40
0.0
 40
0.1710252651246308
 40
0.3633104721067204
 40
0.5555956790888099
 40
0.7266209442134407
 40
0.7266209442134407
 40
0.7266209442134407
 40
0.7266209442134407
 10
-124.4126436006326
 20
260.7771425496363
 30
0.0
 10
-124.3591984103746
 20
260.7564740433799
 30
0.0
 10
-124.2456643188346
 20
260.7125677688041
 30
0.0
 10
-124.0590902100394
 20
260.6993419542289
 30
0.0
 10
-123.872516101244
 20
260.7125677688042
 30
0.0
 10
-123.7589820097039
 20
260.7564740433798
 30
0.0
 10
-123.705536819446
 20
260.7771425496363
 30
0.0
 11
-124.4126436006326
 21
260.7771425496363
 31
0.0
 11
-124.2504313444483
 21
260.7229500640679
 31
0.0
 11
-124.0590902100393
 21
260.703919244933
 31
0.0
 11
-123.8677490756303
 21
260.7229500640679
 31
0.0
 11
-123.705536819446
 21
260.7771425496363
 31
0.0
  0
SPLINE
  5
282
330
1F
100
AcDbEntity
  8
0
  6
Continuous
 62
     7
100
AcDbSpline
210
0.0
220
0.0
230
1.0
 70
     8
 71
     3
 72
    13
 73
     9
 74
     7
 42
0.000000001
 43
0.0000000001
 44
0.00000001
 40
0.0
 40
0.0
 40
0.0
 40
0.0
 40
0.5539188606598
 40
1.214452086088969
 40
1.635919803362834
 40
2.165281108211327
 40
2.576988363516678
 40
2.974102422467179
 40
2.974102422467179
 40
2.974102422467179
 40
2.974102422467179
 10
-114.1896127465878
 20
252.3608719528295
 30
0.0
 10
-114.3324244315734
 20
252.2434671084839
 30
0.0
 10
-114.6455351887906
 20
251.9860601820129
 30
0.0
 10
-115.1306468691397
 20
251.7261184221966
 30
0.0
 10
-115.643160913492
 20
251.5591022687989
 30
0.0
 10
-116.098458543617
 20
251.5079300937454
 30
0.0
 10
-116.5472797122931
 20
251.5574595130599
 30
0.0
 10
-116.7970400821345
 20
251.6620743082909
 30
0.0
 10
-116.9196671081073
 20
251.7134379538403
 30
0.0
 11
-114.1896127465878
 21
252.3608719528295
 31
0.0
 11
-114.6278294798768
 21
252.0220619816898
 31
0.0
 11
-115.2102184767684
 21
251.7104096123785
 31
0.0
 11
-115.6118503051361
 21
251.5826328058409
 31
0.0
 11
-116.138142869455
 21
251.5257159287924
 31
0.0
 11
-116.5465995917518
 21
251.5773489881774
 31
0.0
 11
-116.9196671081073
 21
251.7134379538403
 31
0.0
  0
SPLINE
  5
283
330
1F
100
AcDbEntity
  8
0
  6
Continuous
 62
     7
100
AcDbSpline
210
0.0
220
0.0
230
1.0
 70
     8
 71
     3
 72
    13
 73
     9
 74
     7
 42
0.000000001
 43
0.0000000001
 44
0.00000001
 40
0.0
 40
0.0
 40
0.0
 40
0.0
 40
0.4608452790712326
 40
0.8086859285354837
 40
1.204150290195871
 40
1.759608310766672
 40
2.347944029453365
 40
2.97414249560357
 40
2.97414249560357
 40
2.97414249560357
 40
2.97414249560357
 10
-113.5208437823076
 20
258.5110846054397
 30
0.0
 10
-113.3883068439033
 20
258.4316296596446
 30
0.0
 10
-113.1557325753017
 20
258.2922030354026
 30
0.0
 10
-112.8833457635475
 20
257.99207326306
 30
0.0
 10
-112.6504594337275
 20
257.6249182937371
 30
0.0
 10
-112.4724819090981
 20
257.1391797416123
 30
0.0
 10
-112.3758872400709
 20
256.5529903759333
 30
0.0
 10
-112.3923257057424
 20
256.1476107381393
 30
0.0
 10
-112.4008011779955
 20
255.9386021235329
 30
0.0
 11
-113.5208437823076
 21
258.5110846054397
 31
0.0
 11
-113.1393549483533
 21
258.2525412943095
 31
0.0
 11
-112.9017516190778
 21
257.9984984295465
 31
0.0
 11
-112.6896229429017
 21
257.6647417998182
 31
0.0
 11
-112.4927519303349
 21
257.1453427052456
 31
0.0
 11
-112.397364209111
 21
256.5647911557016
 31
0.0
 11
-112.4008011779955
 21
255.9386021235329
 31
0.0
  0
SPLINE
  5
284
330
1F
100
AcDbEntity
  8
0
  6
Continuous
 62
     2
100
AcDbSpline
210
0.0
220
0.0
230
1.0
 70
     8
 71
     3
 72
     9
 73
     5
 74
     3
 42
0.000000001
 43
0.0000000001
 44
0.00000001
 40
0.0
 40
0.0
 40
0.0
 40
0.0
 40
0.1719793145823476
 40
0.3118328901050621
 40
0.3118328901050621
 40
0.3118328901050621
 40
0.3118328901050621
 10
-123.705536819446
 20
252.9829139155763
 30
0.0
 10
-123.7092236823266
 20
252.922750338396
 30
0.0
 10
-123.7159087195678
 20
252.8136617480543
 30
0.0
 10
-123.7984600526918
 20
252.7438063690985
 30
0.0
 10
-123.8354834122893
 20
252.712477015373
 30
0.0
 11
-123.705536819446
 21
252.9829139155763
 31
0.0
 11
-123.7396732558484
 21
252.81435653871
 31
0.0
 11
-123.8354834122893
 21
252.712477015373
 31
0.0
  0
SPLINE
  5
285
330
1F
100
AcDbEntity
  8
0
  6
Continuous
 62
     2
100
AcDbSpline
210
0.0
220
0.0
230
1.0
 70
     8
 71
     3
 72
     9
 73
     5
 74
     3
 42
0.000000001
 43
0.0000000001
 44
0.00000001
 40
0.0
 40
0.0
 40
0.0
 40
0.0
 40
0.0484848301543394
 40
0.0967373345657573
 40
0.0967373345657573
 40
0.0967373345657573
 40
0.0967373345657573
 10
-112.5345661460572
 20
256.0054846075636
 30
0.0
 10
-112.5341824647358
 20
256.0216421257254
 30
0.0
 10
-112.533416960583
 20
256.0538797400811
 30
0.0
 10
-112.5333053419884
 20
256.0861262433785
 30
0.0
 10
-112.5332496766986
 20
256.1022107733011
 30
0.0
 11
-112.5345661460572
 21
256.0054846075636
 31
0.0
 11
-112.5335793696611
 21
256.0539593951752
 31
0.0
 11
-112.5332496766986
 21
256.1022107733011
 31
0.0
  0
SPLINE
  5
286
330
1F
100
AcDbEntity
  8
0
  6
Continuous
 62
     2
100
AcDbSpline
210
0.0
220
0.0
230
1.0
 70
     8
 71
     3
 72
     9
 73
     5
 74
     3
 42
0.000000001
 43
0.0000000001
 44
0.00000001
 40
0.0
 40
0.0
 40
0.0
 40
0.0
 40
0.1719793145823141
 40
0.311832890104986
 40
0.311832890104986
 40
0.311832890104986
 40
0.311832890104986
 10
-124.4126436006326
 20
252.9829139155763
 30
0.0
 10
-124.408956737752
 20
252.9227503383961
 30
0.0
 10
-124.4022717005109
 20
252.8136617480542
 30
0.0
 10
-124.3197203673868
 20
252.7438063690987
 30
0.0
 10
-124.2826970077893
 20
252.7124770153731
 30
0.0
 11
-124.4126436006326
 21
252.9829139155763
 31
0.0
 11
-124.3785071642302
 21
252.81435653871
 31
0.0
 11
-124.2826970077893
 21
252.7124770153731
 31
0.0
  0
SPLINE
  5
287
330
1F
100
AcDbEntity
  8
0
  6
Continuous
 62
     2
100
AcDbSpline
210
0.0
220
0.0
230
1.0
 70
     8
 71
     3
 72
    11
 73
     7
 74
     5
 42
0.000000001
 43
0.0000000001
 44
0.00000001
 40
0.0
 40
0.0
 40
0.0
 40
0.0
 40
0.1710252651246128
 40
0.3633104721067023
 40
0.5555956790887918
 40
0.7266209442134046
 40
0.7266209442134046
 40
0.7266209442134046
 40
0.7266209442134046
 10
-124.4126436006326
 20
252.9829139155763
 30
0.0
 10
-124.3591984103746
 20
252.9622454093198
 30
0.0
 10
-124.2456643188346
 20
252.9183391347443
 30
0.0
 10
-124.0590902100393
 20
252.9051133201688
 30
0.0
 10
-123.872516101244
 20
252.9183391347443
 30
0.0
 10
-123.7589820097039
 20
252.9622454093198
 30
0.0
 10
-123.705536819446
 20
252.9829139155763
 30
0.0
 11
-124.4126436006326
 21
252.9829139155763
 31
0.0
 11
-124.2504313444483
 21
252.928721430008
 31
0.0
 11
-124.0590902100393
 21
252.909690610873
 31
0.0
 11
-123.8677490756303
 21
252.928721430008
 31
0.0
 11
-123.705536819446
 21
252.9829139155763
 31
0.0
  0
SPLINE
  5
288
330
1F
100
AcDbEntity
  8
0
  6
Continuous
 62
     7
100
AcDbSpline
210
0.0
220
0.0
230
1.0
 70
     8
 71
     3
 72
    15
 73
    11
 74
     9
 42
0.000000001
 43
0.0000000001
 44
0.00000001
 40
0.0
 40
0.0
 40
0.0
 40
0.0
 40
0.3566697336980741
 40
0.7156815823614303
 40
1.055323723140459
 40
1.386597347467245
 40
1.688211583671785
 40
2.037425545350517
 40
2.360672644924376
 40
2.63796145710668
 40
2.63796145710668
 40
2.63796145710668
 40
2.63796145710668
 10
-123.705536819446
 20
258.161628794404
 30
0.0
 10
-123.7399517951261
 20
258.0478332919318
 30
0.0
 10
-123.8090077225188
 20
257.819495030845
 30
0.0
 10
-123.9045392993269
 20
257.4808218929507
 30
0.0
 10
-123.9718121509119
 20
257.1435753352098
 30
0.0
 10
-123.995788830964
 20
256.8192172989731
 30
0.0
 10
-123.9738949885175
 20
256.4916229680094
 30
0.0
 10
-123.9093460543567
 20
256.1725481164753
 30
0.0
 10
-123.8150776341469
 20
255.8698359928252
 30
0.0
 10
-123.7401387684298
 20
255.6841606054891
 30
0.0
 10
-123.7055368194544
 20
255.5984276708289
 30
0.0
 11
-123.705536819446
 21
258.161628794404
 31
0.0
 11
-123.8077212325856
 21
257.8199101314107
 31
0.0
 11
-123.9016427568031
 21
257.4734014660286
 31
0.0
 11
-123.965367016536
 21
257.1397909101784
 31
0.0
 11
-123.9883795319206
 21
256.8093175545012
 31
0.0
 11
-123.9688095498148
 21
256.5083388780049
 31
0.0
 11
-123.9016427568096
 21
256.1656451174451
 31
0.0
 11
-123.8060738750501
 21
255.8568486200072
 31
0.0
 11
-123.7055368194544
 21
255.5984276708289
 31
0.0
  0
SPLINE
  5
289
330
1F
100
AcDbEntity
  8
0
  6
Continuous
 62
     7
100
AcDbSpline
210
0.0
220
0.0
230
1.0
 70
     8
 71
     3
 72
    11
 73
     7
 74
     5
 42
0.000000001
 43
0.0000000001
 44
0.00000001
 40
0.0
 40
0.0
 40
0.0
 40
0.0
 40
0.7785027042177378
 40
1.775684536351453
 40
2.40044123104263
 40
3.015479276263394
 40
3.015479276263394
 40
3.015479276263394
 40
3.015479276263394
 10
-127.4646775231287
 20
254.3034672730428
 30
0.0
 10
-127.701735441063
 20
254.4103554506489
 30
0.0
 10
-128.2424401571315
 20
254.6541563664303
 30
0.0
 10
-129.0409975382891
 20
254.7973563959381
 30
0.0
 10
-129.7951382972218
 20
254.7501892836542
 30
0.0
 10
-130.1804301201934
 20
254.5939753678595
 30
0.0
 10
-130.3715658938784
 20
254.5164806771588
 30
0.0
 11
-127.4646775231287
 21
254.3034672730428
 31
0.0
 11
-128.1854647830611
 21
254.5976308080578
 31
0.0
 11
-129.1676232092924
 21
254.7700733724164
 31
0.0
 11
-129.7901176327773
 21
254.7169544144616
 31
0.0
 11
-130.3715658938784
 21
254.5164806771588
 31
0.0
  0
SPLINE
  5
28A
330
1F
100
AcDbEntity
  8
0
  6
Continuous
 62
     2
100
AcDbSpline
210
0.0
220
0.0
230
1.0
 70
     8
 71
     3
 72
     9
 73
     5
 74
     3
 42
0.000000001
 43
0.0000000001
 44
0.00000001
 40
0.0
 40
0.0
 40
0.0
 40
0.0
 40
0.1398535755227134
 40
0.3118328901050803
 40
0.3118328901050803
 40
0.3118328901050803
 40
0.3118328901050803
 10
-127.4646775231287
 20
254.3034672730428
 30
0.0
 10
-127.5017008827262
 20
254.3347966267683
 30
0.0
 10
-127.5842522158503
 20
254.4046520057241
 30
0.0
 10
-127.5909372530914
 20
254.5137405960658
 30
0.0
 10
-127.594624115972
 20
254.5739041732461
 30
0.0
 11
-127.4646775231287
 21
254.3034672730428
 31
0.0
 11
-127.5604876795696
 21
254.4053467963797
 31
0.0
 11
-127.594624115972
 21
254.5739041732461
 31
0.0
  0
SPLINE
  5
28B
330
1F
100
AcDbEntity
  8
0
  6
Continuous
 62
     2
100
AcDbSpline
210
0.0
220
0.0
230
1.0
 70
     8
 71
     3
 72
     9
 73
     5
 74
     3
 42
0.000000001
 43
0.0000000001
 44
0.00000001
 40
0.0
 40
0.0
 40
0.0
 40
0.0
 40
0.5211834551492437
 40
1.05476504274678
 40
1.05476504274678
 40
1.05476504274678
 40
1.05476504274678
 10
-130.3715658938784
 20
254.5164806771588
 30
0.0
 10
-130.5235932389862
 20
254.4303739347196
 30
0.0
 10
-130.8312644086236
 20
254.2561120899672
 30
0.0
 10
-131.0767056024029
 20
254.001498992242
 30
0.0
 10
-131.2008687000233
 20
253.8726960233767
 30
0.0
 11
-130.3715658938784
 21
254.5164806771588
 31
0.0
 11
-130.812454018699
 21
254.2385420934432
 31
0.0
 11
-131.2008687000233
 21
253.8726960233767
 31
0.0
  0
SPLINE
  5
28C
330
1F
100
AcDbEntity
  8
0
  6
Continuous
 62
     2
100
AcDbSpline
210
0.0
220
0.0
230
1.0
 70
     8
 71
     3
 72
    15
 73
    11
 74
     9
 42
0.000000001
 43
0.0000000001
 44
0.00000001
 40
0.0
 40
0.0
 40
0.0
 40
0.0
 40
0.9363118061784151
 40
2.053656753527473
 40
3.385675833876806
 40
4.850617741390952
 40
6.315559648905167
 40
7.64757872925447
 40
8.764923676603496
 40
9.701235482781914
 40
9.701235482781914
 40
9.701235482781914
 40
9.701235482781914
 10
-113.5208437823076
 20
258.5110846054397
 30
0.0
 10
-113.831003744111
 20
258.5912681985118
 30
0.0
 10
-114.5112921878575
 20
258.767138630056
 30
0.0
 10
-115.5961719170631
 20
258.2557771774657
 30
0.0
 10
-116.5658406112105
 20
257.3824147400437
 30
0.0
 10
-117.3523098256357
 20
256.1782884698541
 30
0.0
 10
-117.8437293131323
 20
254.8266373362002
 30
0.0
 10
-117.9606180465815
 20
253.5268849184291
 30
0.0
 10
-117.7187793711304
 20
252.3521642635105
 30
0.0
 10
-117.1699099596469
 20
251.9134557674398
 30
0.0
 10
-116.9196671081073
 20
251.7134379538403
 30
0.0
 11
-113.5208437823076
 21
258.5110846054397
 31
0.0
 11
-114.4467026680353
 21
258.6506020883791
 31
0.0
 11
-115.4903236059023
 21
258.2514591371474
 31
0.0
 11
-116.4928275972071
 21
257.3743841326757
 31
0.0
 11
-117.3016011637271
 21
256.1529341388998
 31
0.0
 11
-117.7934970188359
 21
254.7730452894182
 31
0.0
 11
-117.8936546276304
 21
253.4447970936914
 31
0.0
 11
-117.5867964258954
 21
252.3704145726588
 31
0.0
 11
-116.9196671081073
 21
251.7134379538403
 31
0.0
  0
SPLINE
  5
28D
330
1F
100
AcDbEntity
  8
0
  6
Continuous
 62
     7
100
AcDbSpline
210
0.0
220
0.0
230
1.0
 70
     8
 71
     3
 72
    11
 73
     7
 74
     5
 42
0.000000001
 43
0.0000000001
 44
0.00000001
 40
0.0
 40
0.0
 40
0.0
 40
0.0
 40
1.115900706849231
 40
2.504474580665598
 40
4.161955175488714
 40
5.907387681872802
 40
5.907387681872802
 40
5.907387681872802
 40
5.907387681872802
 10
-119.5312514223932
 20
261.5162884254825
 30
0.0
 10
-119.9073077908067
 20
261.5953502811591
 30
0.0
 10
-120.7513108554626
 20
261.7727929425126
 30
0.0
 10
-122.0086142418958
 20
260.9730458704554
 30
0.0
 10
-123.076800969814
 20
259.7770455776318
 30
0.0
 10
-123.492377864124
 20
258.7093000639011
 30
0.0
 10
-123.705536819446
 20
258.161628794404
 30
0.0
 11
-119.5312514223932
 21
261.5162884254825
 31
0.0
 11
-120.6420663042842
 21
261.6227059796452
 31
0.0
 11
-121.8772710693445
 21
260.9883507032261
 31
0.0
 11
-122.9758071498759
 21
259.747197848449
 31
0.0
 11
-123.705536819446
 21
258.161628794404
 31
0.0
  0
SPLINE
  5
28E
330
1F
100
AcDbEntity
  8
0
  6
Continuous
 62
     2
100
AcDbSpline
210
0.0
220
0.0
230
1.0
 70
     8
 71
     3
 72
    19
 73
    15
 74
    13
 42
0.000000001
 43
0.0000000001
 44
0.00000001
 40
0.0
 40
0.0
 40
0.0
 40
0.0
 40
1.147934207702321
 40
2.080142572451766
 40
3.01955144496347
 40
4.180599474200169
 40
5.564489207482534
 40
7.033061635832295
 40
8.408138727529087
 40
9.556089852551487
 40
10.48828934673844
 40
11.42768853333467
 40
11.99725701860691
 40
12.62623503735888
 40
12.62623503735888
 40
12.62623503735888
 40
12.62623503735888
 10
-112.5332496766986
 20
256.1022107733011
 30
0.0
 10
-112.5643086468458
 20
256.4908608763188
 30
0.0
 10
-112.6205898245858
 20
257.1951239065597
 30
0.0
 10
-113.3596950815426
 20
258.0195377304199
 30
0.0
 10
-114.4539667932346
 20
258.0620373217649
 30
0.0
 10
-115.4912014132246
 20
257.4671793066476
 30
0.0
 10
-116.3910530895225
 20
256.4551879822551
 30
0.0
 10
-117.0209719997203
 20
255.1743633291952
 30
0.0
 10
-117.2692560509193
 20
253.8505673920978
 30
0.0
 10
-117.1003784710527
 20
252.6748005674321
 30
0.0
 10
-116.3771887483022
 20
251.85190112147
 30
0.0
 10
-115.4910638518602
 20
251.8165767075433
 30
0.0
 10
-114.8214829492369
 20
252.0722788685777
 30
0.0
 10
-114.4948498603176
 20
252.3054304059931
 30
0.0
 10
-114.3234380449409
 20
252.427784602006
 30
0.0
 11
-112.5332496766986
 21
256.1022107733011
 31
0.0
 11
-112.764348360406
 21
257.2266423481299
 31
0.0
 11
-113.4118182938608
 21
257.8973100181961
 31
0.0
 11
-114.3474635723448
 21
257.9813156542626
 31
0.0
 11
-115.3859440570906
 21
257.4620943011715
 31
0.0
 11
-116.3215759519671
 21
256.442416041115
 31
0.0
 11
-116.969070001849
 21
255.1242899339297
 31
0.0
 11
-117.2001386128637
 21
253.7687663052186
 31
0.0
 11
-116.969070001849
 21
252.6443112875221
 31
0.0
 11
-116.3215759519671
 21
251.9736792302187
 31
0.0
 11
-115.3859440570906
 21
251.8896328650388
 31
0.0
 11
-114.8510959687831
 21
252.0854536570321
 31
0.0
 11
-114.3234380449409
 21
252.427784602006
 31
0.0
  0
SPLINE
  5
28F
330
1F
100
AcDbEntity
  8
0
  6
Continuous
 62
     7
100
AcDbSpline
210
0.0
220
0.0
230
1.0
 70
     8
 71
     3
 72
    13
 73
     9
 74
     7
 42
0.000000001
 43
0.0000000001
 44
0.00000001
 40
0.0
 40
0.0
 40
0.0
 40
0.0
 40
0.6684308623517007
 40
1.526816703825491
 40
2.54018580424099
 40
3.553554904656508
 40
4.411940746130327
 40
5.080371608482019
 40
5.080371608482019
 40
5.080371608482019
 40
5.080371608482019
 10
-113.9722748636149
 20
256.7243389663433
 30
0.0
 10
-114.2000477853327
 20
256.7629028663918
 30
0.0
 10
-114.7203222386879
 20
256.8509897555136
 30
0.0
 10
-115.4490912906984
 20
256.2898923673849
 30
0.0
 10
-116.0096373409268
 20
255.5069522274996
 30
0.0
 10
-116.299661822698
 20
254.5887513033858
 30
0.0
 10
-116.3112783019946
 20
253.6690776289001
 30
0.0
 10
-115.9286441186841
 20
253.305710199689
 30
0.0
 10
-115.7611292456147
 20
253.1466302023438
 30
0.0
 11
-113.9722748636149
 21
256.7243389663433
 31
0.0
 11
-114.6398318256975
 21
256.7585080010542
 31
0.0
 11
-115.368171757165
 21
256.3042534243683
 31
0.0
 11
-115.9621284217155
 21
255.483197767894
 31
0.0
 11
-116.2625989481647
 21
254.515399042369
 31
0.0
 11
-116.1889986506329
 21
253.6601743511834
 31
0.0
 11
-115.7611292456147
 21
253.1466302023438
 31
0.0
  0
SPLINE
  5
290
330
1F
100
AcDbEntity
  8
0
  6
Continuous
 62
     7
100
AcDbSpline
210
0.0
220
0.0
230
1.0
 70
     8
 71
     3
 72
     9
 73
     5
 74
     3
 42
0.000000001
 43
0.0000000001
 44
0.00000001
 40
0.0
 40
0.0
 40
0.0
 40
0.0
 40
0.6210254503578119
 40
1.192029905642386
 40
1.192029905642386
 40
1.192029905642386
 40
1.192029905642386
 10
-123.7055368194544
 20
255.5984276708289
 30
0.0
 10
-123.6117598688685
 20
255.4090429093335
 30
0.0
 10
-123.4317592921887
 20
255.045527546213
 30
0.0
 10
-123.092558318362
 20
254.8245122142474
 30
0.0
 10
-122.9300747481929
 20
254.7186417738831
 30
0.0
 11
-123.7055368194544
 21
255.5984276708289
 31
0.0
 11
-123.3809955236696
 21
255.068950986216
 31
0.0
 11
-122.9300747481929
 21
254.7186417738831
 31
0.0
  0
SPLINE
  5
291
330
1F
100
AcDbEntity
  8
0
  6
Continuous
 62
     2
100
AcDbSpline
210
0.0
220
0.0
230
1.0
 70
     8
 71
     3
 72
     9
 73
     5
 74
     3
 42
0.000000001
 43
0.0000000001
 44
0.00000001
 40
0.0
 40
0.0
 40
0.0
 40
0.0
 40
0.106807303137325
 40
0.2303320446271483
 40
0.2303320446271483
 40
0.2303320446271483
 40
0.2303320446271483
 10
-69.71730299221069
 20
239.2917900986986
 30
0.0
 10
-69.75245152073136
 20
239.3022948711572
 30
0.0
 10
-69.82825001376253
 20
239.3249485999148
 30
0.0
 10
-69.9015823842677
 20
239.2941214847186
 30
0.0
 10
-69.9409097899606
 20
239.2775892050909
 30
0.0
 11
-69.71730299221069
 21
239.2917900986986
 31
0.0
 11
-69.82221829667506
 21
239.3118045781856
 31
0.0
 11
-69.9409097899606
 21
239.2775892050909
 31
0.0
  0
SPLINE
  5
292
330
1F
100
AcDbEntity
  8
0
  6
Continuous
 62
     2
100
AcDbSpline
210
0.0
220
0.0
230
1.0
 70
     8
 71
     3
 72
     9
 73
     5
 74
     3
 42
0.000000001
 43
0.0000000001
 44
0.00000001
 40
0.0
 40
0.0
 40
0.0
 40
0.0
 40
0.1068073031372971
 40
0.2303320446272296
 40
0.2303320446272296
 40
0.2303320446272296
 40
0.2303320446272296
 10
-70.1645165877106
 20
239.2917900986986
 30
0.0
 10
-70.12936805918993
 20
239.3022948711572
 30
0.0
 10
-70.05356956615876
 20
239.3249485999148
 30
0.0
 10
-69.98023719565354
 20
239.2941214847186
 30
0.0
 10
-69.9409097899606
 20
239.2775892050909
 30
0.0
 11
-70.1645165877106
 21
239.2917900986986
 31
0.0
 11
-70.05960128324625
 21
239.3118045781856
 31
0.0
 11
-69.9409097899606
 21
239.2775892050909
 31
0.0
  0
SPLINE
  5
293
330
1F
100
AcDbEntity
  8
0
  6
Continuous
 62
     2
100
AcDbSpline
210
0.0
220
0.0
230
1.0
 70
     8
 71
     3
 72
     9
 73
     5
 74
     3
 42
0.000000001
 43
0.0000000001
 44
0.00000001
 40
0.0
 40
0.0
 40
0.0
 40
0.0
 40
0.1353717298684766
 40
0.2383355350529862
 40
0.2383355350529862
 40
0.2383355350529862
 40
0.2383355350529862
 10
-75.2442106488598
 20
236.1929260737492
 30
0.0
 10
-75.28586203121478
 20
236.2157321336691
 30
0.0
 10
-75.35919346194257
 20
236.2558845070717
 30
0.0
 10
-75.38116520815933
 20
236.3353658662664
 30
0.0
 10
-75.3906572582665
 20
236.3697027690457
 30
0.0
 11
-75.2442106488598
 21
236.1929260737492
 31
0.0
 11
-75.35259561999666
 21
236.2740322018413
 31
0.0
 11
-75.3906572582665
 21
236.3697027690457
 31
0.0
  0
SPLINE
  5
294
330
1F
100
AcDbEntity
  8
0
  6
Continuous
 62
     2
100
AcDbSpline
210
0.0
220
0.0
230
1.0
 70
     8
 71
     3
 72
    11
 73
     7
 74
     5
 42
0.000000001
 43
0.0000000001
 44
0.00000001
 40
0.0
 40
0.0
 40
0.0
 40
0.0
 40
0.1811732926744158
 40
0.3757061216316889
 40
0.5655016222807983
 40
0.7341089145549586
 40
0.7341089145549586
 40
0.7341089145549586
 40
0.7341089145549586
 10
-75.2442106488598
 20
236.1929260737492
 30
0.0
 10
-75.23841272283262
 20
236.2534453329167
 30
0.0
 10
-75.22638932259989
 20
236.3789464780048
 30
0.0
 10
-75.14667168658535
 20
236.5523467564605
 30
0.0
 10
-75.03870129004201
 20
236.7055505391114
 30
0.0
 10
-74.93802125680482
 20
236.7716293219754
 30
0.0
 10
-74.8906572582665
 20
236.802715470938
 30
0.0
 11
-75.2442106488598
 21
236.1929260737492
 31
0.0
 11
-75.2172970063361
 21
236.3720891781981
 31
0.0
 11
-75.14065725826654
 21
236.5508889868936
 31
0.0
 11
-75.02595587192711
 21
236.7021038184563
 31
0.0
 11
-74.8906572582665
 21
236.802715470938
 31
0.0
  0
SPLINE
  5
295
330
1F
100
AcDbEntity
  8
0
  6
Continuous
 62
     2
100
AcDbSpline
210
0.0
220
0.0
230
1.0
 70
     8
 71
     3
 72
     9
 73
     5
 74
     3
 42
0.000000001
 43
0.0000000001
 44
0.00000001
 40
0.0
 40
0.0
 40
0.0
 40
0.0
 40
0.1235247414899141
 40
0.2303320446272338
 40
0.2303320446272338
 40
0.2303320446272338
 40
0.2303320446272338
 10
-62.51628858750203
 20
238.1633548152147
 30
0.0
 10
-62.55561599319497
 20
238.1798870948424
 30
0.0
 10
-62.62894836370015
 20
238.2107142100387
 30
0.0
 10
-62.70474685673134
 20
238.1880604812811
 30
0.0
 10
-62.73989538525202
 20
238.1775557088225
 30
0.0
 11
-62.51628858750203
 21
238.1633548152147
 31
0.0
 11
-62.63498008078765
 21
238.1975701883095
 31
0.0
 11
-62.73989538525202
 21
238.1775557088225
 31
0.0
  0
SPLINE
  5
296
330
1F
100
AcDbEntity
  8
0
  6
Continuous
 62
     2
100
AcDbSpline
210
0.0
220
0.0
230
1.0
 70
     8
 71
     3
 72
     9
 73
     5
 74
     3
 42
0.000000001
 43
0.0000000001
 44
0.00000001
 40
0.0
 40
0.0
 40
0.0
 40
0.0
 40
0.1235247414899209
 40
0.2303320446272755
 40
0.2303320446272755
 40
0.2303320446272755
 40
0.2303320446272755
 10
-62.51628858750203
 20
238.1633548152147
 30
0.0
 10
-62.47696118180913
 20
238.1798870948425
 30
0.0
 10
-62.40362881130388
 20
238.2107142100387
 30
0.0
 10
-62.32783031827268
 20
238.1880604812811
 30
0.0
 10
-62.292681789752
 20
238.1775557088225
 30
0.0
 11
-62.51628858750203
 21
238.1633548152147
 31
0.0
 11
-62.39759709421641
 21
238.1975701883095
 31
0.0
 11
-62.292681789752
 21
238.1775557088225
 31
0.0
  0
SPLINE
  5
297
330
1F
100
AcDbEntity
  8
0
  6
Continuous
 62
     2
100
AcDbSpline
210
0.0
220
0.0
230
1.0
 70
     8
 71
     3
 72
     9
 73
     5
 74
     3
 42
0.000000001
 43
0.0000000001
 44
0.00000001
 40
0.0
 40
0.0
 40
0.0
 40
0.0
 40
0.1068073031374108
 40
0.2303320446272398
 40
0.2303320446272398
 40
0.2303320446272398
 40
0.2303320446272398
 10
-66.5353224768712
 20
237.7007998410288
 30
0.0
 10
-66.5704710053919
 20
237.7113046134874
 30
0.0
 10
-66.64626949842305
 20
237.7339583422452
 30
0.0
 10
-66.71960186892828
 20
237.7031312270489
 30
0.0
 10
-66.7589292746212
 20
237.6865989474212
 30
0.0
 11
-66.5353224768712
 21
237.7007998410288
 31
0.0
 11
-66.64023778133564
 21
237.7208143205159
 31
0.0
 11
-66.7589292746212
 21
237.6865989474212
 31
0.0
  0
SPLINE
  5
298
330
1F
100
AcDbEntity
  8
0
  6
Continuous
 62
     2
100
AcDbSpline
210
0.0
220
0.0
230
1.0
 70
     8
 71
     3
 72
     9
 73
     5
 74
     3
 42
0.000000001
 43
0.0000000001
 44
0.00000001
 40
0.0
 40
0.0
 40
0.0
 40
0.0
 40
0.106807303137339
 40
0.2303320446272463
 40
0.2303320446272463
 40
0.2303320446272463
 40
0.2303320446272463
 10
-75.1142640560165
 20
236.8169163645458
 30
0.0
 10
-75.07911552749582
 20
236.8274211370043
 30
0.0
 10
-75.00331703446463
 20
236.8500748657621
 30
0.0
 10
-74.92998466395942
 20
236.8192477505657
 30
0.0
 10
-74.8906572582665
 20
236.802715470938
 30
0.0
 11
-75.1142640560165
 21
236.8169163645458
 31
0.0
 11
-75.00934875155211
 21
236.8369308440328
 31
0.0
 11
-74.8906572582665
 21
236.802715470938
 31
0.0
  0
SPLINE
  5
299
330
1F
100
AcDbEntity
  8
0
  6
Continuous
 62
     7
100
AcDbSpline
210
0.0
220
0.0
230
1.0
 70
     8
 71
     3
 72
    11
 73
     7
 74
     5
 42
0.000000001
 43
0.0000000001
 44
0.00000001
 40
0.0
 40
0.0
 40
0.0
 40
0.0
 40
0.9343457498916727
 40
1.776186468331756
 40
1.878342499544808
 40
1.985940087194966
 40
1.985940087194966
 40
1.985940087194966
 40
1.985940087194966
 10
-66.5353224768712
 20
237.7007998410288
 30
0.0
 10
-66.24968122268015
 20
237.5743504766322
 30
0.0
 10
-65.70667866173909
 20
237.3339709030201
 30
0.0
 10
-65.078907323767
 20
237.2364633983337
 30
0.0
 10
-64.72840567679211
 20
237.232480344492
 30
0.0
 10
-64.6585172643854
 20
237.2349191168142
 30
0.0
 10
-64.62266651444222
 20
237.2361701442273
 30
0.0
 11
-66.5353224768712
 21
237.7007998410288
 31
0.0
 11
-65.66438938984189
 21
237.3624545530778
 31
0.0
 11
-64.83237679070763
 21
237.2341937416554
 31
0.0
 11
-64.73022495417719
 21
237.2332678603723
 31
0.0
 11
-64.62266651444222
 21
237.2361701442273
 31
0.0
  0
SPLINE
  5
29A
330
1F
100
AcDbEntity
  8
0
  6
Continuous
 62
     2
100
AcDbSpline
210
0.0
220
0.0
230
1.0
 70
     8
 71
     3
 72
     9
 73
     5
 74
     3
 42
0.000000001
 43
0.0000000001
 44
0.00000001
 40
0.0
 40
0.0
 40
0.0
 40
0.0
 40
1.13757150430297
 40
2.152706313731251
 40
2.152706313731251
 40
2.152706313731251
 40
2.152706313731251
 10
-66.7589292746212
 20
237.6865989474212
 30
0.0
 10
-66.40860975677286
 20
237.530367211621
 30
0.0
 10
-65.7456755665306
 20
237.2347189634112
 30
0.0
 10
-65.02108977362013
 20
237.2164276247867
 30
0.0
 10
-64.67940254066681
 20
237.2078021311151
 30
0.0
 11
-66.7589292746212
 21
237.6865989474212
 31
0.0
 11
-65.69075471923763
 21
237.2953547147019
 31
0.0
 11
-64.67940254066681
 21
237.2078021311151
 31
0.0
  0
SPLINE
  5
29B
330
1F
100
AcDbEntity
  8
0
  6
Continuous
 62
     2
100
AcDbSpline
210
0.0
220
0.0
230
1.0
 70
     8
 71
     3
 72
    15
 73
    11
 74
     9
 42
0.000000001
 43
0.0000000001
 44
0.00000001
 40
0.0
 40
0.0
 40
0.0
 40
0.0
 40
0.9363118061783998
 40
2.053656753527539
 40
3.385675833876785
 40
4.850617741390955
 40
6.315559648905108
 40
7.647578729254416
 40
8.764923676603502
 40
9.701235482781836
 40
9.701235482781836
 40
9.701235482781836
 40
9.701235482781836
 10
-80.47915621769219
 20
233.4931825086321
 30
0.0
 10
-80.72939906923186
 20
233.6932003222316
 30
0.0
 10
-81.27826848071537
 20
234.1319088183022
 30
0.0
 10
-81.52010715616646
 20
235.3066294732209
 30
0.0
 10
-81.40321842271723
 20
236.606381890992
 30
0.0
 10
-80.91179893522065
 20
237.9580330246458
 30
0.0
 10
-80.12532972079555
 20
239.1621592948355
 30
0.0
 10
-79.15566102664808
 20
240.0355217322575
 30
0.0
 10
-78.07078129744251
 20
240.5468831848477
 30
0.0
 10
-77.39049285369597
 20
240.3710127533035
 30
0.0
 10
-77.08033289189261
 20
240.2908291602313
 30
0.0
 11
-80.47915621769219
 21
233.4931825086321
 31
0.0
 11
-81.14628553548037
 21
234.1501591274505
 31
0.0
 11
-81.45314373721531
 21
235.2245416484832
 31
0.0
 11
-81.35298612842082
 21
236.5527898442099
 31
0.0
 11
-80.86109027331212
 21
237.9326786936916
 31
0.0
 11
-80.05231670679207
 21
239.1541286874675
 31
0.0
 11
-79.0498127154873
 21
240.0312036919391
 31
0.0
 11
-78.00619177762022
 21
240.4303466431707
 31
0.0
 11
-77.08033289189261
 21
240.2908291602313
 31
0.0
  0
SPLINE
  5
29C
330
1F
100
AcDbEntity
  8
0
  6
Continuous
 62
     7
100
AcDbSpline
210
0.0
220
0.0
230
1.0
 70
     8
 71
     3
 72
    23
 73
    19
 74
    17
 42
0.000000001
 43
0.0000000001
 44
0.00000001
 40
0.0
 40
0.0
 40
0.0
 40
0.0
 40
0.3971140562112601
 40
0.8088213094707501
 40
1.266947683893288
 40
1.759796674228576
 40
2.324212822598964
 40
3.249592564358162
 40
4.119589558344458
 40
5.017133681777272
 40
5.716596032411279
 40
6.78435132385487
 40
7.557153331422477
 40
8.274312883188617
 40
8.767161873801054
 40
9.225288249011253
 40
9.692371204445852
 40
10.03401865939548
 40
10.03401865939548
 40
10.03401865939548
 40
10.03401865939548
 10
-80.47915621769219
 20
233.4931825086321
 30
0.0
 10
-80.59382161983146
 20
233.5604554861814
 30
0.0
 10
-80.82736615494747
 20
233.6974736083428
 30
0.0
 10
-81.1198661731246
 20
234.0094517640334
 30
0.0
 10
-81.35823932185515
 20
234.3991800248525
 30
0.0
 10
-81.5289338182495
 20
234.8782115460452
 30
0.0
 10
-81.63468412294588
 20
235.5337359091496
 30
0.0
 10
-81.59865689353111
 20
236.3266473414751
 30
0.0
 10
-81.39222290930252
 20
237.2038376654136
 30
0.0
 10
-81.07973350563749
 20
237.968348764019
 30
0.0
 10
-80.63548258896596
 20
238.7393185275383
 30
0.0
 10
-80.10160568949689
 20
239.4046630327449
 30
0.0
 10
-79.44875383295903
 20
239.9594340820385
 30
0.0
 10
-78.86709216054857
 20
240.284474665997
 30
0.0
 10
-78.33257509629155
 20
240.4504447517744
 30
0.0
 10
-77.85937305679721
 20
240.4955539916773
 30
0.0
 10
-77.43380784354794
 20
240.4424896194901
 30
0.0
 10
-77.18531041236702
 20
240.3358703734447
 30
0.0
 10
-77.08033289189261
 20
240.2908291602313
 30
0.0
 11
-80.47915621769219
 21
233.4931825086321
 31
0.0
 11
-80.81186790003689
 21
233.7099831423196
 31
0.0
 11
-81.09824838092213
 21
234.005768684525
 31
0.0
 11
-81.33841821816203
 21
234.3958945945939
 31
0.0
 11
-81.50724806966512
 21
234.8589244088261
 31
0.0
 11
-81.60076110173496
 21
235.4155399866546
 31
0.0
 11
-81.56853018765229
 21
236.3403582578628
 31
0.0
 11
-81.3729195623382
 21
237.1880794696563
 31
0.0
 11
-81.03444259005953
 21
238.0193548520653
 31
0.0
 11
-80.6848465613233
 21
238.6251850217924
 31
0.0
 11
-80.01169787325328
 21
239.4540228866609
 31
0.0
 11
-79.4192778657285
 21
239.9502702821655
 31
0.0
 11
-78.7897815232315
 21
240.2938575016931
 31
0.0
 11
-78.31805976094445
 21
240.4366115090301
 31
0.0
 11
-77.86185713054492
 21
240.4785511852795
 31
0.0
 11
-77.39940098961625
 21
240.4129706217519
 31
0.0
 11
-77.08033289189261
 21
240.2908291602313
 31
0.0
  0
SPLINE
  5
29D
330
1F
100
AcDbEntity
  8
0
  6
Continuous
 62
     2
100
AcDbSpline
210
0.0
220
0.0
230
1.0
 70
     8
 71
     3
 72
     9
 73
     5
 74
     3
 42
0.000000001
 43
0.0000000001
 44
0.00000001
 40
0.0
 40
0.0
 40
0.0
 40
0.0
 40
0.1398535755227073
 40
0.3118328901051786
 40
0.3118328901051786
 40
0.3118328901051786
 40
0.3118328901051786
 10
-56.2822741496665
 20
216.3377961727074
 30
0.0
 10
-56.24525079006899
 20
216.369125526433
 30
0.0
 10
-56.16269945694483
 20
216.4389809053887
 30
0.0
 10
-56.15601441970379
 20
216.5480694957305
 30
0.0
 10
-56.15232755682322
 20
216.6082330729108
 30
0.0
 11
-56.2822741496665
 21
216.3377961727074
 31
0.0
 11
-56.18646399322554
 21
216.4396756960443
 31
0.0
 11
-56.15232755682322
 21
216.6082330729108
 31
0.0
  0
SPLINE
  5
29E
330
1F
100
AcDbEntity
  8
0
  6
Continuous
 62
     2
100
AcDbSpline
210
0.0
220
0.0
230
1.0
 70
     8
 71
     3
 72
     9
 73
     5
 74
     3
 42
0.000000001
 43
0.0000000001
 44
0.00000001
 40
0.0
 40
0.0
 40
0.0
 40
0.0
 40
0.1719793145824798
 40
0.3118328901051773
 40
0.3118328901051773
 40
0.3118328901051773
 40
0.3118328901051773
 10
-56.85943433800971
 20
216.6082330729108
 30
0.0
 10
-56.85574747512914
 20
216.5480694957305
 30
0.0
 10
-56.84906243788804
 20
216.4389809053886
 30
0.0
 10
-56.76651110476388
 20
216.369125526433
 30
0.0
 10
-56.7294877451664
 20
216.3377961727074
 30
0.0
 11
-56.85943433800971
 21
216.6082330729108
 31
0.0
 11
-56.82529790160735
 21
216.4396756960443
 31
0.0
 11
-56.7294877451664
 21
216.3377961727074
 31
0.0
  0
SPLINE
  5
29F
330
1F
100
AcDbEntity
  8
0
  6
Continuous
 62
     7
100
AcDbSpline
210
0.0
220
0.0
230
1.0
 70
     8
 71
     3
 72
    11
 73
     7
 74
     5
 42
0.000000001
 43
0.0000000001
 44
0.00000001
 40
0.0
 40
0.0
 40
0.0
 40
0.0
 40
0.2158173344973625
 40
0.4587555762474101
 40
0.7077575980550943
 40
0.9396594128107383
 40
0.9396594128107383
 40
0.9396594128107383
 40
0.9396594128107383
 10
-54.81589574038062
 20
228.9677919322218
 30
0.0
 10
-54.87652165861823
 20
228.9280016614785
 30
0.0
 10
-55.00539210413578
 20
228.8434208225694
 30
0.0
 10
-55.14359421050516
 20
228.6473199786088
 30
0.0
 10
-55.24563278688049
 20
228.4253676223081
 30
0.0
 10
-55.26102273502099
 20
228.2647261555987
 30
0.0
 10
-55.26844408034003
 20
228.1872615038201
 30
0.0
 11
-54.81589574038062
 21
228.9677919322218
 31
0.0
 11
-54.98907796586612
 21
228.8390090170453
 31
0.0
 11
-55.1358957403806
 21
228.645454032645
 31
0.0
 11
-55.23399461790969
 21
228.4165902775148
 31
0.0
 11
-55.26844408034003
 21
228.1872615038201
 31
0.0
  0
SPLINE
  5
2A0
330
1F
100
AcDbEntity
  8
0
  6
Continuous
 62
     7
100
AcDbSpline
210
0.0
220
0.0
230
1.0
 70
     8
 71
     3
 72
     9
 73
     5
 74
     3
 42
0.000000001
 43
0.0000000001
 44
0.00000001
 40
0.0
 40
0.0
 40
0.0
 40
0.0
 40
0.1790125774360478
 40
0.3991461008683795
 40
0.3991461008683795
 40
0.3991461008683795
 40
0.3991461008683795
 10
-55.1021124415005
 20
218.5573099429907
 30
0.0
 10
-55.14950234198831
 20
218.5974115159313
 30
0.0
 10
-55.2551680530439
 20
218.6868263981366
 30
0.0
 10
-55.26372489583632
 20
218.826459796192
 30
0.0
 10
-55.26844408033991
 20
218.903469175251
 30
0.0
 11
-55.1021124415005
 21
218.5573099429907
 31
0.0
 11
-55.22474944174492
 21
218.6877157328621
 31
0.0
 11
-55.26844408033991
 21
218.903469175251
 31
0.0
  0
SPLINE
  5
2A1
330
1F
100
AcDbEntity
  8
0
  6
Continuous
 62
     7
100
AcDbSpline
210
0.0
220
0.0
230
1.0
 70
     8
 71
     3
 72
    11
 73
     7
 74
     5
 42
0.000000001
 43
0.0000000001
 44
0.00000001
 40
0.0
 40
0.0
 40
0.0
 40
0.0
 40
0.2158173344973061
 40
0.4587555762473353
 40
0.7077575980551221
 40
0.9396594128106723
 40
0.9396594128106723
 40
0.9396594128106723
 40
0.9396594128106723
 10
-44.23050722601951
 20
215.5596766650489
 30
0.0
 10
-44.16988130778191
 20
215.5994669357922
 30
0.0
 10
-44.04101086226433
 20
215.6840477747011
 30
0.0
 10
-43.90280875589491
 20
215.8801486186618
 30
0.0
 10
-43.80077017951972
 20
216.1021009749625
 30
0.0
 10
-43.78538023137924
 20
216.2627424416719
 30
0.0
 10
-43.77795888606021
 20
216.3402070934505
 30
0.0
 11
-44.23050722601951
 21
215.5596766650489
 31
0.0
 11
-44.05732500053399
 21
215.6884595802253
 31
0.0
 11
-43.9105072260195
 21
215.8820145646255
 31
0.0
 11
-43.81240834849049
 21
216.1108783197559
 31
0.0
 11
-43.77795888606021
 21
216.3402070934505
 31
0.0
  0
SPLINE
  5
2A2
330
1F
100
AcDbEntity
  8
0
  6
Continuous
 62
     2
100
AcDbSpline
210
0.0
220
0.0
230
1.0
 70
     8
 71
     3
 72
    11
 73
     7
 74
     5
 42
0.000000001
 43
0.0000000001
 44
0.00000001
 40
0.0
 40
0.0
 40
0.0
 40
0.0
 40
0.1710252651245904
 40
0.363310472106663
 40
0.5555956790887355
 40
0.7266209442133259
 40
0.7266209442133259
 40
0.7266209442133259
 40
0.7266209442133259
 10
-56.85943433800971
 20
216.6082330729108
 30
0.0
 10
-56.80598914775175
 20
216.5875645666543
 30
0.0
 10
-56.6924550562118
 20
216.5436582920787
 30
0.0
 10
-56.50588094741646
 20
216.5304324775034
 30
0.0
 10
-56.31930683862116
 20
216.5436582920787
 30
0.0
 10
-56.20577274708118
 20
216.5875645666543
 30
0.0
 10
-56.15232755682322
 20
216.6082330729108
 30
0.0
 11
-56.85943433800971
 21
216.6082330729108
 31
0.0
 11
-56.6972220818255
 21
216.5540405873424
 31
0.0
 11
-56.50588094741646
 21
216.5350097682075
 31
0.0
 11
-56.31453981300743
 21
216.5540405873424
 31
0.0
 11
-56.15232755682322
 21
216.6082330729108
 31
0.0
  0
SPLINE
  5
2A3
330
1F
100
AcDbEntity
  8
0
  6
Continuous
 62
     7
100
AcDbSpline
210
0.0
220
0.0
230
1.0
 70
     8
 71
     3
 72
    11
 73
     7
 74
     5
 42
0.000000001
 43
0.0000000001
 44
0.00000001
 40
0.0
 40
0.0
 40
0.0
 40
0.0
 40
0.4800957845487355
 40
0.9447455692360776
 40
1.33522556063687
 40
1.644964922418059
 40
1.644964922418059
 40
1.644964922418059
 40
1.644964922418059
 10
-64.67017883408661
 20
227.2686034704677
 30
0.0
 10
-64.72070815656811
 20
227.4223078031318
 30
0.0
 10
-64.82014114551065
 20
227.7247713727217
 30
0.0
 10
-65.10552032709924
 20
228.0687546731671
 30
0.0
 10
-65.44988029088071
 20
228.3068406129763
 30
0.0
 10
-65.68702794645527
 20
228.2608397794197
 30
0.0
 10
-65.79192930774819
 20
228.2404914794132
 30
0.0
 11
-64.67017883408661
 21
227.2686034704677
 31
0.0
 11
-64.8482335851587
 21
227.7144604687304
 31
0.0
 11
-65.14204795823467
 21
228.0744223254472
 31
0.0
 11
-65.48312428317769
 21
228.264531693021
 31
0.0
 11
-65.79192930774819
 21
228.2404914794132
 31
0.0
  0
SPLINE
  5
2A4
330
1F
100
AcDbEntity
  8
0
  6
Continuous
 62
     7
100
AcDbSpline
210
0.0
220
0.0
230
1.0
 70
     8
 71
     3
 72
    13
 73
     9
 74
     7
 42
0.000000001
 43
0.0000000001
 44
0.00000001
 40
0.0
 40
0.0
 40
0.0
 40
0.0
 40
0.334215430123515
 40
0.7634083440548565
 40
1.270092900007078
 40
1.776777455959354
 40
2.20597036989062
 40
2.540185800014098
 40
2.540185800014098
 40
2.540185800014098
 40
2.540185800014098
 10
-65.79192930774819
 20
228.2404914794132
 30
0.0
 10
-65.87568674401919
 20
228.160951480991
 30
0.0
 10
-66.06700382680411
 20
227.9792677631193
 30
0.0
 10
-66.06119559785397
 20
227.519430931102
 30
0.0
 10
-65.91618336239533
 20
227.0603304633397
 30
0.0
 10
-65.63591032946061
 20
226.6688603943155
 30
0.0
 10
-65.27152580121705
 20
226.3883117119451
 30
0.0
 10
-65.0113885772486
 20
226.4323551474499
 30
0.0
 10
-64.89750211674831
 20
226.4516370974134
 30
0.0
 11
-65.79192930774819
 21
228.2404914794132
 31
0.0
 11
-66.00586401025747
 21
227.9837194049935
 31
0.0
 11
-66.04266415902345
 21
227.5561070594006
 31
0.0
 11
-65.89242889579882
 21
227.072207696638
 31
0.0
 11
-65.59545056352346
 21
226.6616798684008
 31
0.0
 11
-65.23128059778962
 21
226.4345525800578
 31
0.0
 11
-64.89750211674831
 21
226.4516370974134
 31
0.0
  0
SPLINE
  5
2A5
330
1F
100
AcDbEntity
  8
0
  6
Continuous
 62
     7
100
AcDbSpline
210
0.0
220
0.0
230
1.0
 70
     8
 71
     3
 72
    13
 73
     9
 74
     7
 42
0.000000001
 43
0.0000000001
 44
0.00000001
 40
0.0
 40
0.0
 40
0.0
 40
0.0
 40
0.2506615720664003
 40
0.572556254112006
 40
0.9525696739484182
 40
1.332583093784847
 40
1.65447777583051
 40
1.905139347896909
 40
1.905139347896909
 40
1.905139347896909
 40
1.905139347896909
 10
-61.43841627063122
 20
226.8021983900726
 30
0.0
 10
-61.37559819355983
 20
226.861853388764
 30
0.0
 10
-61.2321103859064
 20
226.998116178801
 30
0.0
 10
-61.23646655226995
 20
227.342993800201
 30
0.0
 10
-61.34522572615038
 20
227.6873191538753
 30
0.0
 10
-61.55543050476162
 20
227.9809217051844
 30
0.0
 10
-61.8287189020635
 20
228.1913332111152
 30
0.0
 10
-62.02382181868519
 20
228.1583006390146
 30
0.0
 10
-62.10923666388111
 20
228.1438391765724
 30
0.0
 11
-61.43841627063122
 21
226.8021983900726
 31
0.0
 11
-61.27796524374923
 21
226.9947774458873
 31
0.0
 11
-61.25036513217476
 21
227.3154867050819
 31
0.0
 11
-61.3630415795932
 21
227.6784112271539
 31
0.0
 11
-61.58577532879972
 21
227.9863070983319
 31
0.0
 11
-61.85890280310014
 21
228.1566525645891
 31
0.0
 11
-62.10923666388111
 21
228.1438391765724
 31
0.0
  0
SPLINE
  5
2A6
330
1F
100
AcDbEntity
  8
0
  6
Continuous
 62
     7
100
AcDbSpline
210
0.0
220
0.0
230
1.0
 70
     8
 71
     3
 72
     9
 73
     5
 74
     3
 42
0.000000001
 43
0.0000000001
 44
0.00000001
 40
0.0
 40
0.0
 40
0.0
 40
0.0
 40
0.4323366010255338
 40
0.8061621678171977
 40
0.8061621678171977
 40
0.8061621678171977
 40
0.8061621678171977
 10
-62.51628858750203
 20
228.0607561943916
 30
0.0
 10
-62.65393450927735
 20
228.1186191738663
 30
0.0
 10
-62.91059780273577
 20
228.2265141258362
 30
0.0
 10
-63.17589252789235
 20
228.1472260261951
 30
0.0
 10
-63.29891237962701
 20
228.1104593220186
 30
0.0
 11
-62.51628858750203
 21
228.0607561943916
 31
0.0
 11
-62.93170881400162
 21
228.1805100002232
 31
0.0
 11
-63.29891237962701
 21
228.1104593220186
 31
0.0
  0
SPLINE
  5
2A7
330
1F
100
AcDbEntity
  8
0
  6
Continuous
 62
     2
100
AcDbSpline
210
0.0
220
0.0
230
1.0
 70
     8
 71
     3
 72
     9
 73
     5
 74
     3
 42
0.000000001
 43
0.0000000001
 44
0.00000001
 40
0.0
 40
0.0
 40
0.0
 40
0.0
 40
0.1719793145823948
 40
0.3118328901051179
 40
0.3118328901051179
 40
0.3118328901051179
 40
0.3118328901051179
 10
-72.0622301335204
 20
226.8077071820194
 30
0.0
 10
-72.05854327063982
 20
226.7475436048391
 30
0.0
 10
-72.05185823339869
 20
226.6384550144973
 30
0.0
 10
-71.96930690027462
 20
226.5685996355417
 30
0.0
 10
-71.93228354067709
 20
226.5372702818161
 30
0.0
 11
-72.0622301335204
 21
226.8077071820194
 31
0.0
 11
-72.02809369711804
 21
226.639149805153
 31
0.0
 11
-71.93228354067709
 21
226.5372702818161
 31
0.0
  0
SPLINE
  5
2A8
330
1F
100
AcDbEntity
  8
0
  6
Continuous
 62
     2
100
AcDbSpline
210
0.0
220
0.0
230
1.0
 70
     8
 71
     3
 72
    11
 73
     7
 74
     5
 42
0.000000001
 43
0.0000000001
 44
0.00000001
 40
0.0
 40
0.0
 40
0.0
 40
0.0
 40
0.0073329555402839
 40
0.0276108034726315
 40
0.0605556762189417
 40
0.1056633917785188
 40
0.1056633917785188
 40
0.1056633917785188
 40
0.1056633917785188
 10
-67.9187525166062
 20
222.0528426378472
 30
0.0
 10
-67.91629829884499
 20
222.0529174375374
 30
0.0
 10
-67.90705742620142
 20
222.0531991055148
 30
0.0
 10
-67.88817989128603
 20
222.0614099101339
 30
0.0
 10
-67.85747548314296
 20
222.0723141713349
 30
0.0
 10
-67.83346528657749
 20
222.0824518929913
 30
0.0
 10
-67.8195894464012
 20
222.0883106271066
 30
0.0
 11
-67.9187525166062
 21
222.0528426378472
 31
0.0
 11
-67.91143454571055
 21
222.0533112378522
 31
0.0
 11
-67.89212468280384
 21
222.0595015804492
 31
0.0
 11
-67.86133796924707
 21
222.07122944906
 31
0.0
 11
-67.8195894464012
 21
222.0883106271066
 31
0.0
  0
SPLINE
  5
2A9
330
1F
100
AcDbEntity
  8
0
  6
Continuous
 62
     2
100
AcDbSpline
210
0.0
220
0.0
230
1.0
 70
     8
 71
     3
 72
     9
 73
     5
 74
     3
 42
0.000000001
 43
0.0000000001
 44
0.00000001
 40
0.0
 40
0.0
 40
0.0
 40
0.0
 40
0.1719793145823948
 40
0.3118328901050984
 40
0.3118328901050984
 40
0.3118328901050984
 40
0.3118328901050984
 10
-67.8195894464012
 20
222.0883106271066
 30
0.0
 10
-67.81590258352063
 20
222.0281470499263
 30
0.0
 10
-67.80921754627953
 20
221.9190584595846
 30
0.0
 10
-67.72666621315538
 20
221.8492030806288
 30
0.0
 10
-67.68964285355791
 20
221.8178737269033
 30
0.0
 11
-67.8195894464012
 21
222.0883106271066
 31
0.0
 11
-67.78545300999883
 21
221.9197532502402
 31
0.0
 11
-67.68964285355791
 21
221.8178737269033
 31
0.0
  0
SPLINE
  5
2AA
330
1F
100
AcDbEntity
  8
0
  6
Continuous
 62
     7
100
AcDbSpline
210
0.0
220
0.0
230
1.0
 70
     8
 71
     3
 72
    14
 73
    10
 74
     8
 42
0.000000001
 43
0.0000000001
 44
0.00000001
 40
0.0
 40
0.0
 40
0.0
 40
0.0
 40
0.1421198575536481
 40
0.2842789878193475
 40
1.929891185032746
 40
3.516917123621308
 40
4.180102396976158
 40
5.079687166362893
 40
6.119112633918502
 40
6.119112633918502
 40
6.119112633918502
 40
6.119112633918502
 10
-67.9187525166062
 20
222.0528426378472
 30
0.0
 10
-67.9390135523236
 20
222.0956656177266
 30
0.0
 10
-67.97954123553387
 20
222.1813234048178
 30
0.0
 10
-68.26345842927977
 20
222.7585751024723
 30
0.0
 10
-68.83602772923207
 20
223.7314619292264
 30
0.0
 10
-69.65120066258065
 20
224.749884967376
 30
0.0
 10
-70.40001679841434
 20
225.4860473500079
 30
0.0
 10
-71.06726019165714
 20
226.0458969344025
 30
0.0
 10
-71.63040450223795
 20
226.3657890045007
 30
0.0
 10
-71.93228354067709
 20
226.5372702818161
 30
0.0
 11
-67.9187525166062
 21
222.0528426378472
 31
0.0
 11
-67.97985908917799
 21
222.1811549152775
 31
0.0
 11
-68.0425317950564
 21
222.3087533092423
 31
0.0
 11
-68.87912640324623
 21
223.7258450385668
 31
0.0
 11
-69.87639864036622
 21
224.9603892552093
 31
0.0
 11
-70.34907377699874
 21
225.4255697827502
 31
0.0
 11
-71.04559838324612
 21
225.9948730696485
 31
0.0
 11
-71.93228354067709
 21
226.5372702818161
 31
0.0
  0
SPLINE
  5
2AB
330
1F
100
AcDbEntity
  8
0
  6
Continuous
 62
     2
100
AcDbSpline
210
0.0
220
0.0
230
1.0
 70
     8
 71
     3
 72
    11
 73
     7
 74
     5
 42
0.000000001
 43
0.0000000001
 44
0.00000001
 40
0.0
 40
0.0
 40
0.0
 40
0.0
 40
1.4483341833954
 40
3.034221676067124
 40
4.718927981223531
 40
6.450694023673683
 40
6.450694023673683
 40
6.450694023673683
 40
6.450694023673683
 10
-72.0622301335204
 20
226.8077071820194
 30
0.0
 10
-71.6447985437751
 20
226.5619568557272
 30
0.0
 10
-70.77029045005683
 20
226.0471164315099
 30
0.0
 10
-69.64125099999293
 20
224.9342948990866
 30
0.0
 10
-68.61111043050903
 20
223.6150280923843
 30
0.0
 10
-68.08584151866772
 20
222.6018683288555
 30
0.0
 10
-67.8195894464012
 20
222.0883106271066
 30
0.0
 11
-72.0622301335204
 21
226.8077071820194
 31
0.0
 11
-70.84378142922289
 21
226.0247291073049
 31
0.0
 11
-69.69052188839414
 21
224.9361375503842
 31
0.0
 11
-68.66415412529842
 21
223.6001717743294
 31
0.0
 11
-67.8195894464012
 21
222.0883106271066
 31
0.0
  0
SPLINE
  5
2AC
330
1F
100
AcDbEntity
  8
0
  6
Continuous
 62
     2
100
AcDbSpline
210
0.0
220
0.0
230
1.0
 70
     8
 71
     3
 72
     9
 73
     5
 74
     3
 42
0.000000001
 43
0.0000000001
 44
0.00000001
 40
0.0
 40
0.0
 40
0.0
 40
0.0
 40
0.1719793145824784
 40
0.3118328901051808
 40
0.3118328901051808
 40
0.3118328901051808
 40
0.3118328901051808
 10
-75.2442106488598
 20
228.3986974396892
 30
0.0
 10
-75.24052378597925
 20
228.3385338625089
 30
0.0
 10
-75.23383874873818
 20
228.229445272167
 30
0.0
 10
-75.15128741561396
 20
228.1595898932114
 30
0.0
 10
-75.1142640560165
 20
228.1282605394858
 30
0.0
 11
-75.2442106488598
 21
228.3986974396892
 31
0.0
 11
-75.21007421245744
 21
228.2301400628227
 31
0.0
 11
-75.1142640560165
 21
228.1282605394858
 31
0.0
  0
SPLINE
  5
2AD
330
1F
100
AcDbEntity
  8
0
  6
Continuous
 62
     7
100
AcDbSpline
210
0.0
220
0.0
230
1.0
 70
     8
 71
     3
 72
     9
 73
     5
 74
     3
 42
0.000000001
 43
0.0000000001
 44
0.00000001
 40
0.0
 40
0.0
 40
0.0
 40
0.0
 40
0.4323366010255879
 40
0.806162167817196
 40
0.806162167817196
 40
0.806162167817196
 40
0.806162167817196
 10
-62.8698419780953
 20
227.8839794990948
 30
0.0
 10
-63.00748789987063
 20
227.9418424785696
 30
0.0
 10
-63.26415119332898
 20
228.0497374305395
 30
0.0
 10
-63.5294459184856
 20
227.9704493308986
 30
0.0
 10
-63.65246577022023
 20
227.933682626722
 30
0.0
 11
-62.8698419780953
 21
227.8839794990948
 31
0.0
 11
-63.2852622045949
 21
228.0037333049266
 31
0.0
 11
-63.65246577022023
 21
227.933682626722
 31
0.0
  0
SPLINE
  5
2AE
330
1F
100
AcDbEntity
  8
0
  6
Continuous
 62
     7
100
AcDbSpline
210
0.0
220
0.0
230
1.0
 70
     8
 71
     3
 72
     9
 73
     5
 74
     3
 42
0.000000001
 43
0.0000000001
 44
0.00000001
 40
0.0
 40
0.0
 40
0.0
 40
0.0
 40
0.349633942915137
 40
0.7795822334795928
 40
0.7795822334795928
 40
0.7795822334795928
 40
0.7795822334795928
 10
-63.42885897247032
 20
227.486469031222
 30
0.0
 10
-63.52141737255165
 20
227.4081456459877
 30
0.0
 10
-63.72779573030863
 20
227.2335072139087
 30
0.0
 10
-63.74450829728897
 20
226.9607857251019
 30
0.0
 10
-63.75372545457852
 20
226.8103767807138
 30
0.0
 11
-63.42885897247032
 21
227.486469031222
 31
0.0
 11
-63.66838436357261
 21
227.2317702228797
 31
0.0
 11
-63.75372545457852
 21
226.8103767807138
 31
0.0
  0
SPLINE
  5
2AF
330
1F
100
AcDbEntity
  8
0
  6
Continuous
 62
     7
100
AcDbSpline
210
0.0
220
0.0
230
1.0
 70
     8
 71
     3
 72
     9
 73
     5
 74
     3
 42
0.000000001
 43
0.0000000001
 44
0.00000001
 40
0.0
 40
0.0
 40
0.0
 40
0.0
 40
0.3088118572113067
 40
0.5758301185412824
 40
0.5758301185412824
 40
0.5758301185412824
 40
0.5758301185412824
 10
-62.8698419780953
 20
227.4509667972027
 30
0.0
 10
-62.96816049343766
 20
227.4922974967386
 30
0.0
 10
-63.15149141771479
 20
227.5693653139991
 30
0.0
 10
-63.34098765002128
 20
227.5127309627115
 30
0.0
 10
-63.42885897247032
 20
227.486469031222
 30
0.0
 11
-62.8698419780953
 21
227.4509667972027
 31
0.0
 11
-63.16657071130931
 21
227.5365052299396
 31
0.0
 11
-63.42885897247032
 21
227.486469031222
 31
0.0
  0
SPLINE
  5
2B0
330
1F
100
AcDbEntity
  8
0
  6
Continuous
 62
     7
100
AcDbSpline
210
0.0
220
0.0
230
1.0
 70
     8
 71
     3
 72
     9
 73
     5
 74
     3
 42
0.000000001
 43
0.0000000001
 44
0.00000001
 40
0.0
 40
0.0
 40
0.0
 40
0.0
 40
0.4894875211769513
 40
1.091415129062779
 40
1.091415129062779
 40
1.091415129062779
 40
1.091415129062779
 10
-63.65246577022023
 20
227.933682626722
 30
0.0
 10
-63.78204753062418
 20
227.8240298871486
 30
0.0
 10
-64.07097723813644
 20
227.5795360863205
 30
0.0
 10
-64.09437482494293
 20
227.1977259985369
 30
0.0
 10
-64.1072788451718
 20
226.9871534760104
 30
0.0
 11
-63.65246577022023
 21
227.933682626722
 31
0.0
 11
-63.98780131776354
 21
227.5771042950427
 31
0.0
 11
-64.1072788451718
 21
226.9871534760104
 31
0.0
  0
SPLINE
  5
2B1
330
1F
100
AcDbEntity
  8
0
  6
Continuous
 62
     7
100
AcDbSpline
210
0.0
220
0.0
230
1.0
 70
     8
 71
     3
 72
     9
 73
     5
 74
     3
 42
0.000000001
 43
0.0000000001
 44
0.00000001
 40
0.0
 40
0.0
 40
0.0
 40
0.0
 40
0.2674447579667868
 40
0.5831560092065351
 40
0.5831560092065351
 40
0.5831560092065351
 40
0.5831560092065351
 10
-63.23313184630163
 20
227.5369459335087
 30
0.0
 10
-63.28107333240714
 20
227.4600589218421
 30
0.0
 10
-63.38560841883979
 20
227.2924088795755
 30
0.0
 10
-63.39505684750795
 20
227.0943690473221
 30
0.0
 10
-63.40017206398522
 20
226.9871534760104
 30
0.0
 11
-63.23313184630163
 21
227.5369459335087
 31
0.0
 11
-63.3569568384145
 21
227.2998930474099
 31
0.0
 11
-63.40017206398522
 21
226.9871534760104
 31
0.0
  0
SPLINE
  5
2B2
330
1F
100
AcDbEntity
  8
0
  6
Continuous
 62
     7
100
AcDbSpline
210
0.0
220
0.0
230
1.0
 70
     8
 71
     3
 72
     9
 73
     5
 74
     3
 42
0.000000001
 43
0.0000000001
 44
0.00000001
 40
0.0
 40
0.0
 40
0.0
 40
0.0
 40
0.1269655068836553
 40
0.2675787641049379
 40
0.2675787641049379
 40
0.2675787641049379
 40
0.2675787641049379
 10
-62.46279005447442
 20
227.9670624812758
 30
0.0
 10
-62.49863250989966
 20
227.9428165457322
 30
0.0
 10
-62.57417017710578
 20
227.8917184215989
 30
0.0
 10
-62.60905028772726
 20
227.807175791606
 30
0.0
 10
-62.6273798578494
 20
227.7627484389719
 30
0.0
 11
-62.46279005447442
 21
227.9670624812758
 31
0.0
 11
-62.56116344551472
 21
227.8867947021047
 31
0.0
 11
-62.6273798578494
 21
227.7627484389719
 31
0.0
  0
SPLINE
  5
2B3
330
1F
100
AcDbEntity
  8
0
  6
Continuous
 62
     7
100
AcDbSpline
210
0.0
220
0.0
230
1.0
 70
     8
 71
     3
 72
    11
 73
     7
 74
     5
 42
0.000000001
 43
0.0000000001
 44
0.00000001
 40
0.0
 40
0.0
 40
0.0
 40
0.0
 40
0.3545323837644354
 40
0.6951764029428411
 40
0.9810587943888281
 40
1.208905211471052
 40
1.208905211471052
 40
1.208905211471052
 40
1.208905211471052
 10
-62.6273798578494
 20
227.3297357370798
 30
0.0
 10
-62.58783535254062
 20
227.2170328847645
 30
0.0
 10
-62.51029543778778
 20
226.9960421794131
 30
0.0
 10
-62.29730894255754
 20
226.7461267493978
 30
0.0
 10
-62.04267355174614
 20
226.5752882534144
 30
0.0
 10
-61.86899756224656
 20
226.6100183641332
 30
0.0
 10
-61.79196966122452
 20
226.6254216947759
 30
0.0
 11
-62.6273798578494
 21
227.3297357370798
 31
0.0
 11
-62.48966052164233
 21
227.0030453763168
 31
0.0
 11
-62.27042961133775
 21
226.7423230008208
 31
0.0
 11
-62.01900804268428
 21
226.6062497047838
 31
0.0
 11
-61.79196966122452
 21
226.6254216947759
 31
0.0
  0
SPLINE
  5
2B4
330
1F
100
AcDbEntity
  8
0
  6
Continuous
 62
     7
100
AcDbSpline
210
0.0
220
0.0
230
1.0
 70
     8
 71
     3
 72
    11
 73
     7
 74
     5
 42
0.000000001
 43
0.0000000001
 44
0.00000001
 40
0.0
 40
0.0
 40
0.0
 40
0.0
 40
0.2760612935354276
 40
0.5596649950506278
 40
1.034153752031717
 40
1.455671985211159
 40
1.455671985211159
 40
1.455671985211159
 40
1.455671985211159
 10
-62.2910403789082
 20
225.5594190006079
 30
0.0
 10
-62.26507027495233
 20
225.4709080178439
 30
0.0
 10
-62.21242051087998
 20
225.2914678043949
 30
0.0
 10
-62.05669566232272
 20
224.9832869786827
 30
0.0
 10
-61.82557663012229
 20
224.6554369098295
 30
0.0
 10
-61.57398662171932
 20
224.4903828233187
 30
0.0
 10
-61.45562841572222
 20
224.4127346548777
 30
0.0
 11
-62.2910403789082
 21
225.5594190006079
 31
0.0
 11
-62.20543531531582
 21
225.2969659357572
 31
0.0
 11
-62.08062841572226
 21
225.0423008649884
 31
0.0
 11
-61.79387494987364
 21
224.6642637860818
 31
0.0
 11
-61.45562841572222
 21
224.4127346548777
 31
0.0
  0
SPLINE
  5
2B5
330
1F
100
AcDbEntity
  8
0
  6
Continuous
 62
     7
100
AcDbSpline
210
0.0
220
0.0
230
1.0
 70
     8
 71
     3
 72
    13
 73
     9
 74
     7
 42
0.000000001
 43
0.0000000001
 44
0.00000001
 40
0.0
 40
0.0
 40
0.0
 40
0.0
 40
0.250661572066483
 40
0.5725562541121448
 40
0.9525696739485278
 40
1.332583093784911
 40
1.654477775830486
 40
1.905139347896931
 40
1.905139347896931
 40
1.905139347896931
 40
1.905139347896931
 10
-61.79196966122452
 20
226.6254216947759
 30
0.0
 10
-61.72915158415312
 20
226.6850766934673
 30
0.0
 10
-61.58566377649973
 20
226.8213394835044
 30
0.0
 10
-61.59001994286325
 20
227.1662171049044
 30
0.0
 10
-61.69877911674368
 20
227.5105424585787
 30
0.0
 10
-61.9089838953549
 20
227.8041450098877
 30
0.0
 10
-62.18227229265679
 20
228.0145565158185
 30
0.0
 10
-62.3773752092785
 20
227.981523943718
 30
0.0
 10
-62.46279005447442
 20
227.9670624812758
 30
0.0
 11
-61.79196966122452
 21
226.6254216947759
 31
0.0
 11
-61.63151863434253
 21
226.8180007505907
 31
0.0
 11
-61.60391852276807
 21
227.1387100097854
 31
0.0
 11
-61.71659497018651
 21
227.5016345318574
 31
0.0
 11
-61.93932871939302
 21
227.8095304030353
 31
0.0
 11
-62.2124561936934
 21
227.9798758692924
 31
0.0
 11
-62.46279005447442
 21
227.9670624812758
 31
0.0
  0
SPLINE
  5
2B6
330
1F
100
AcDbEntity
  8
0
  6
Continuous
 62
     7
100
AcDbSpline
210
0.0
220
0.0
230
1.0
 70
     8
 71
     3
 72
    11
 73
     7
 74
     5
 42
0.000000001
 43
0.0000000001
 44
0.00000001
 40
0.0
 40
0.0
 40
0.0
 40
0.0
 40
0.4529332323948743
 40
0.9392653087653273
 40
1.413754065312092
 40
1.835272298068166
 40
1.835272298068166
 40
1.835272298068166
 40
1.835272298068166
 10
-62.69306528279872
 20
225.7604314525531
 30
0.0
 10
-62.67857046770807
 20
225.6091333043976
 30
0.0
 10
-62.64851198939785
 20
225.2953804363381
 30
0.0
 10
-62.44921788716526
 20
224.8618797408564
 30
0.0
 10
-62.17929190226776
 20
224.4788702726164
 30
0.0
 10
-61.92759180324295
 20
224.3136733323692
 30
0.0
 10
-61.8091818063155
 20
224.235957959581
 30
0.0
 11
-62.69306528279872
 21
225.7604314525531
 31
0.0
 11
-62.62578117648945
 21
225.3125236914306
 31
0.0
 11
-62.43418180631546
 21
224.8655241696918
 31
0.0
 11
-62.14742834046685
 21
224.4874870907851
 31
0.0
 11
-61.8091818063155
 21
224.235957959581
 31
0.0
  0
SPLINE
  5
2B7
330
1F
100
AcDbEntity
  8
0
  6
Continuous
 62
     7
100
AcDbSpline
210
0.0
220
0.0
230
1.0
 70
     8
 71
     3
 72
     9
 73
     5
 74
     3
 42
0.000000001
 43
0.0000000001
 44
0.00000001
 40
0.0
 40
0.0
 40
0.0
 40
0.0
 40
0.0303901079908258
 40
0.0608121752584221
 40
0.0608121752584221
 40
0.0608121752584221
 40
0.0608121752584221
 10
-64.54394872615501
 20
226.6284137927099
 30
0.0
 10
-64.5349733717176
 20
226.6331327293363
 30
0.0
 10
-64.5170132340499
 20
226.6425755824739
 30
0.0
 10
-64.50032086493358
 20
226.654112474751
 30
0.0
 10
-64.49197029946052
 20
226.659883960884
 30
0.0
 11
-64.54394872615501
 21
226.6284137927099
 31
0.0
 11
-64.51733927674866
 21
226.6430935709933
 31
0.0
 11
-64.49197029946052
 21
226.659883960884
 31
0.0
  0
SPLINE
  5
2B8
330
1F
100
AcDbEntity
  8
0
  6
Continuous
 62
     7
100
AcDbSpline
210
0.0
220
0.0
230
1.0
 70
     8
 71
     3
 72
     9
 73
     5
 74
     3
 42
0.000000001
 43
0.0000000001
 44
0.00000001
 40
0.0
 40
0.0
 40
0.0
 40
0.0
 40
0.1804600671322729
 40
0.3825007838584754
 40
0.3825007838584754
 40
0.3825007838584754
 40
0.3825007838584754
 10
-64.89750211674831
 20
226.4516370974134
 30
0.0
 10
-64.84681686509424
 20
226.4866970905432
 30
0.0
 10
-64.73938508633177
 20
226.5610098042974
 30
0.0
 10
-64.69409925293684
 20
226.6840154288953
 30
0.0
 10
-64.67017883408661
 20
226.7489882281972
 30
0.0
 11
-64.89750211674831
 21
226.4516370974134
 31
0.0
 11
-64.75927917552484
 21
226.5676554368855
 31
0.0
 11
-64.67017883408661
 21
226.7489882281972
 31
0.0
  0
SPLINE
  5
2B9
330
1F
100
AcDbEntity
  8
0
  6
Continuous
 62
     7
100
AcDbSpline
210
0.0
220
0.0
230
1.0
 70
     8
 71
     3
 72
    11
 73
     7
 74
     5
 42
0.000000001
 43
0.0000000001
 44
0.00000001
 40
0.0
 40
0.0
 40
0.0
 40
0.0
 40
0.6341065255417613
 40
1.31497143352102
 40
1.979255693999582
 40
2.569381220410365
 40
2.569381220410365
 40
2.569381220410365
 40
2.569381220410365
 10
-63.04661867339203
 20
225.9372081478498
 30
0.0
 10
-63.02632593225909
 20
225.725390740369
 30
0.0
 10
-62.98424406856385
 20
225.2861367236619
 30
0.0
 10
-62.70523232218597
 20
224.6792357501628
 30
0.0
 10
-62.32733594505234
 20
224.14302249153
 30
0.0
 10
-61.97495580216908
 20
223.9117467796941
 30
0.0
 10
-61.8091818063155
 20
223.8029452576888
 30
0.0
 11
-63.04661867339203
 21
225.9372081478498
 31
0.0
 11
-62.95242092455906
 21
225.3101372822784
 31
0.0
 11
-62.6841818063155
 21
224.684337951844
 31
0.0
 11
-62.28272695412745
 21
224.1550860413746
 31
0.0
 11
-61.8091818063155
 21
223.8029452576888
 31
0.0
  0
SPLINE
  5
2BA
330
1F
100
AcDbEntity
  8
0
  6
Continuous
 62
     7
100
AcDbSpline
210
0.0
220
0.0
230
1.0
 70
     8
 71
     3
 72
    15
 73
    11
 74
     9
 42
0.000000001
 43
0.0000000001
 44
0.00000001
 40
0.0
 40
0.0
 40
0.0
 40
0.0
 40
0.3920735853106031
 40
0.8080907748019361
 40
1.140230939063401
 40
1.48374040463791
 40
1.827249870217052
 40
2.159390034482183
 40
2.575407223966977
 40
2.967480809250704
 40
2.967480809250704
 40
2.967480809250704
 40
2.967480809250704
 10
-76.74999999999778
 20
162.8084081868134
 30
0.0
 10
-76.74491875335872
 20
162.9390528702037
 30
0.0
 10
-76.7344459675562
 20
163.2083205987181
 30
0.0
 10
-76.68972095916766
 20
163.5859651780237
 30
0.0
 10
-76.65809355083368
 20
163.9485157681941
 30
0.0
 10
-76.64588514370611
 20
164.2882730454943
 30
0.0
 10
-76.6580935508318
 20
164.6280303227956
 30
0.0
 10
-76.6897209591649
 20
164.9905809129668
 30
0.0
 10
-76.73444596755239
 20
165.3682254922623
 30
0.0
 10
-76.74491875335754
 20
165.6374932207655
 30
0.0
 10
-76.74999999999778
 20
165.7681379041468
 30
0.0
 11
-76.74999999999778
 21
162.8084081868134
 31
0.0
 11
-76.72975999467282
 21
163.1999589993737
 31
0.0
 11
-76.68880269220199
 21
163.6139551360433
 31
0.0
 11
-76.66119743218766
 21
163.9449461304797
 31
0.0
 11
-76.64999999999782
 21
164.2882730454927
 31
0.0
 11
-76.66119743218597
 21
164.6315999605104
 31
0.0
 11
-76.68880269219977
 21
164.9625909549505
 31
0.0
 11
-76.72975999467054
 21
165.3765870916136
 31
0.0
 11
-76.74999999999778
 21
165.7681379041468
 31
0.0
  0
SPLINE
  5
2BB
330
1F
100
AcDbEntity
  8
0
  6
Continuous
 62
     7
100
AcDbSpline
210
0.0
220
0.0
230
1.0
 70
     8
 71
     3
 72
    15
 73
    11
 74
     9
 42
0.000000001
 43
0.0000000001
 44
0.00000001
 40
0.0
 40
0.0
 40
0.0
 40
0.0
 40
0.3920735853106046
 40
0.8080907748019349
 40
1.14023093906343
 40
1.483740404637911
 40
1.827249870217084
 40
2.159390034482156
 40
2.575407223967009
 40
2.967480809250678
 40
2.967480809250678
 40
2.967480809250678
 40
2.967480809250678
 10
-117.2500000000022
 20
165.7681379042031
 30
0.0
 10
-117.2550812466413
 20
165.6374932208128
 30
0.0
 10
-117.2655540324438
 20
165.3682254922983
 30
0.0
 10
-117.3102790408324
 20
164.9905809129928
 30
0.0
 10
-117.3419064491663
 20
164.6280303228224
 30
0.0
 10
-117.3541148562939
 20
164.2882730455223
 30
0.0
 10
-117.3419064491681
 20
163.9485157682208
 30
0.0
 10
-117.3102790408351
 20
163.5859651780497
 30
0.0
 10
-117.2655540324475
 20
163.2083205987541
 30
0.0
 10
-117.2550812466424
 20
162.9390528702509
 30
0.0
 10
-117.2500000000022
 20
162.8084081868697
 30
0.0
 11
-117.2500000000022
 21
165.7681379042031
 31
0.0
 11
-117.2702400053272
 21
165.3765870916428
 31
0.0
 11
-117.311197307798
 21
164.9625909549732
 31
0.0
 11
-117.3388025678124
 21
164.6315999605368
 31
0.0
 11
-117.3500000000022
 21
164.2882730455238
 31
0.0
 11
-117.338802567814
 21
163.944946130506
 31
0.0
 11
-117.3111973078002
 21
163.613955136066
 31
0.0
 11
-117.2702400053294
 21
163.1999589994029
 31
0.0
 11
-117.2500000000022
 21
162.8084081868697
 31
0.0
  0
ARC
  5
2BC
102
{ACAD_REACTORS
330
314
102
}
330
1F
100
AcDbEntity
  8
1
  6
Continuous
 62
     7
100
AcDbCircle
 10
-15.65703264459069
 20
10.07749983983257
 30
0.0
 40
0.3333333333332007
100
AcDbArc
 50
180.0
 51
299.9816393688464
  0
ARC
  5
2BD
102
{ACAD_REACTORS
330
314
102
}
330
1F
100
AcDbEntity
  8
1
  6
Continuous
 62
     7
100
AcDbCircle
 10
-15.65703264459069
 20
14.92250016016737
 30
0.0
 40
0.3333333333333598
100
AcDbArc
 50
60.0183606311539
 51
180.0
  0
ARC
  5
2BE
330
1F
100
AcDbEntity
  8
1
  6
Continuous
 62
     7
100
AcDbCircle
 10
-9.99055111169739
 20
12.5
 30
0.0
 40
0.1666666666665779
100
AcDbArc
 50
299.9816393688268
 51
60.01836063115454
  0
ARC
  5
2BF
330
1F
100
AcDbEntity
  8
1
  6
Continuous
 62
     7
100
AcDbCircle
 10
-26.65684751081719
 20
12.5
 30
0.0
 40
0.1666666666665959
100
AcDbArc
 50
119.9816393689121
 51
240.0183606311065
  0
ARC
  5
2C0
102
{ACAD_REACTORS
330
316
102
}
330
1F
100
AcDbEntity
  8
1
  6
Continuous
 62
     7
100
AcDbCircle
 10
-20.65703264459069
 20
10.2700211480327
 30
0.0
 40
0.6666666666666003
100
AcDbArc
 50
180.0000000000104
 51
240.018360631158
  0
ARC
  5
2C1
102
{ACAD_REACTORS
330
317
102
}
330
1F
100
AcDbEntity
  8
1
  6
Continuous
 62
     7
100
AcDbCircle
 10
-18.32369931125729
 20
12.83333333333326
 30
0.0
 40
0.1666666666667028
100
AcDbArc
 50
209.9999999999634
 51
330.0000000000195
  0
MTEXT
  5
2C3
330
1F
100
AcDbEntity
  8
1
 62
     4
100
AcDbMText
 10
-111.1074961291461
 20
116.3292636179644
 30
0.0
 40
2.0
 41
0.0
 71
     2
 72
     1
  1
  1\P  2\P  3\P  4\PSHIELD
  7
CONVERTER_11
 73
     1
 44
1.32052821128451
  0
MTEXT
  5
2C4
330
1F
100
AcDbEntity
  8
1
 62
     4
100
AcDbMText
 10
-82.89250387085394
 20
116.3292636179644
 30
0.0
 40
2.0
 41
0.0
 71
     2
 72
     1
  1
  1\P  2\P  3\P  4\PSHIELD
  7
CONVERTER_11
 73
     1
 44
1.32052821128451
  0
MTEXT
  5
2C5
330
1F
100
AcDbEntity
  8
1
 62
     4
100
AcDbMText
 10
-163.216390823213
 20
169.0474193830591
 30
0.0
 40
2.5
 41
0.0
 71
     5
 72
     1
  1
1
  7
CONVERTER_11
 73
     1
 44
1.32052821128451
  0
MTEXT
  5
2C6
330
1F
100
AcDbEntity
  8
1
 62
     4
100
AcDbMText
 10
-163.216390823213
 20
159.5291267079573
 30
0.0
 40
2.5
 41
0.0
 71
     5
 72
     1
  1
4
  7
CONVERTER_11
 73
     1
 44
1.32052821128451
  0
MTEXT
  5
2C7
330
1F
100
AcDbEntity
  8
1
 62
     4
100
AcDbMText
 10
-30.78360917678697
 20
169.0474193830592
 30
0.0
 40
2.5
 41
0.0
 71
     5
 72
     1
  1
4
  7
CONVERTER_11
 73
     1
 44
1.32052821128451
  0
MTEXT
  5
2C8
330
1F
100
AcDbEntity
  8
1
 62
     4
100
AcDbMText
 10
-30.78360917678697
 20
159.5291267079573
 30
0.0
 40
2.5
 41
0.0
 71
     5
 72
     1
  1
1
  7
CONVERTER_11
 73
     1
 44
1.32052821128451
  0
MTEXT
  5
2C9
330
1F
100
AcDbEntity
  8
1
 62
     4
100
AcDbMText
 10
-134.856383859676
 20
146.1777923551451
 30
0.0
 40
3.5
 41
0.0
 71
     5
 72
     1
  1
USB A-M
  7
CONVERTER_11
 73
     1
 44
1.32052821128451
  0
MTEXT
  5
2CA
330
1F
100
AcDbEntity
  8
1
 62
     4
100
AcDbMText
 10
-59.14361614032407
 20
146.1777923551451
 30
0.0
 40
3.5
 41
0.0
 71
     5
 72
     1
  1
USB A-M
  7
CONVERTER_11
 73
     1
 44
1.32052821128451
  0
MTEXT
  5
2CC
330
1F
100
AcDbEntity
  8
1
 62
     7
100
AcDbMText
 10
-40.32369931125729
 20
10.0606394207561
 30
0.0
 40
4.5
 41
0.0
 71
     5
 72
     1
  1
1:1
  7
CONVERTER_12
 73
     1
 44
1.32052821128451
  0
MTEXT
  5
2CD
330
1F
100
AcDbEntity
  8
1
 62
     7
100
AcDbMText
 10
-40.32369931125729
 20
16.26063942075598
 30
0.0
 40
3.0
 41
0.0
 71
     5
 72
     1
  1
Scale
  7
CONVERTER_12
 73
     1
 44
1.32052821128451
  0
MTEXT
  5
2CF
330
1F
100
AcDbEntity
  8
1
 62
     7
100
AcDbMText
 10
-152.7236993112573
 20
12.65304352946998
 30
0.0
 40
4.5
 41
0.0
 71
     4
 72
     1
  1
CW 2 UAM\Pcable USB A-A male/male 2m
  7
CONVERTER_13
 73
     1
 44
0.90036014405762
  0
MTEXT
  5
2D0
330
1F
100
AcDbEntity
  8
1
 62
     7
100
AcDbMText
 10
-176.4
 20
8.75
 30
0.0
 40
3.0
 41
0.0
 71
     4
 72
     1
  1
T.Tedeschi
  7
CONVERTER_12
 73
     1
 44
1.32052821128451
  0
MTEXT
  5
2D1
330
1F
100
AcDbEntity
  8
1
 62
     7
100
AcDbMText
 10
-187.0
 20
8.75
 30
0.0
 40
3.0
 41
0.0
 71
     4
 72
     1
  1
Sign.
  7
CONVERTER_12
 73
     1
 44
1.32052821128451
  0
MTEXT
  5
2D2
330
1F
100
AcDbEntity
  8
1
 62
     7
100
AcDbMText
 10
-176.4
 20
16.26063942075598
 30
0.0
 40
3.0
 41
0.0
 71
     4
 72
     1
  1
10/02/09
  7
CONVERTER_12
 73
     1
 44
1.32052821128451
  0
MTEXT
  5
2D3
330
1F
100
AcDbEntity
  8
1
 62
     7
100
AcDbMText
 10
-187.0
 20
16.26063942075598
 30
0.0
 40
3.0
 41
0.0
 71
     4
 72
     1
  1
Date
  7
CONVERTER_12
 73
     1
 44
1.32052821128451
  0
MTEXT
  5
2D4
330
1F
100
AcDbEntity
  8
1
 62
     7
100
AcDbMText
 10
-194.0000000000001
 20
151.4999999999998
 30
0.0
 40
4.0
 41
0.0
 71
     5
 72
     1
  1
Diritti riservati      All rights reserved
  7
CONVERTER_12
 11
0.0
 21
1.0
 31
0.0
 73
     1
 44
1.32052821128451
  0
DIMENSION
  5
2DF
330
1F
100
AcDbEntity
  8
1
100
AcDbDimension
  2
*D1
 10
-156.0
 20
184.6698603306041
 30
0.0
 11
-97.0
 21
188.1698603306041
 31
0.0
 70
    32
  1
2000
 71
     5
 42
-1.0
 53
0.00013888888889
  3
ME10_DIM_10
100
AcDbAlignedDimension
 13
-38.0
 23
170.2882730455081
 33
0.0
 14
-156.0
 24
170.2882730455083
 34
0.0
100
AcDbRotatedDimension
  0
DIMENSION
  5
2EC
330
1F
100
AcDbEntity
  8
1
100
AcDbDimension
  2
*D2
 10
-174.3961775799808
 20
180.6774350313001
 30
0.0
 11
-170.3961775799808
 21
184.1774350313001
 31
0.0
 70
    32
  1
<>max.
 71
     5
 42
-1.0
 53
0.00013888888889
  3
ME10_DIM_11
100
AcDbAlignedDimension
 13
-166.3961775799808
 23
171.7882730455081
 33
0.0
 14
-174.3961775799808
 24
171.7882730455081
 34
0.0
100
AcDbRotatedDimension
  0
DIMENSION
  5
2F9
330
1F
100
AcDbEntity
  8
1
100
AcDbDimension
  2
*D3
 10
-27.60382242001921
 20
180.6774350313001
 30
0.0
 11
-23.60382242001921
 21
184.1774350313001
 31
0.0
 70
    32
  1
<>max.
 71
     5
 42
-1.0
 53
0.00013888888889
  3
ME10_DIM_12
100
AcDbAlignedDimension
 13
-19.60382242001921
 23
171.7882730455081
 33
0.0
 14
-27.60382242001919
 24
171.7882730455081
 34
0.0
100
AcDbRotatedDimension
  0
DIMENSION
  5
304
330
1F
100
AcDbEntity
  8
1
100
AcDbDimension
  2
*D4
 10
-179.5
 20
172.288273045508
 30
0.0
 11
-183.0
 21
164.2882730455082
 31
0.0
 70
    32
  1
<>max.
 71
     5
 42
-1.0
 53
90.0
  3
ME10_DIM_13
100
AcDbAlignedDimension
 13
-173.8961775799808
 23
156.2882730455084
 33
0.0
 14
-173.8961775799808
 24
172.2882730455081
 34
0.0
 50
90.0
100
AcDbRotatedDimension
  0
DIMENSION
  5
30F
330
1F
100
AcDbEntity
  8
1
100
AcDbDimension
  2
*D5
 10
-11.491898418132
 20
156.2882730455084
 30
0.0
 11
-14.991898418132
 21
164.2882730455082
 31
0.0
 70
    32
  1
<>max.
 71
     5
 42
-1.0
 53
90.0
  3
ME10_DIM_14
100
AcDbAlignedDimension
 13
-20.10382242001921
 23
172.2882730455081
 33
0.0
 14
-20.10382242001921
 24
156.2882730455084
 34
0.0
 50
90.0
100
AcDbRotatedDimension
  0
HATCH
  5
310
330
1F
100
AcDbEntity
  8
1
  6
Continuous
 62
     2
100
AcDbHatch
 10
0.0
 20
0.0
 30
0.0
210
0.0
220
0.0
230
1.0
  2
SOLID
 70
     1
 71
     1
 91
        1
 92
        1
 93
        2
 72
     2
 10
-97.93139953817683
 20
165.2882730455083
 40
1.25
 50
126.869897645844
 51
233.130102354156
 73
     1
 72
     2
 10
-99.43139953817683
 20
165.2882730455083
 40
1.25
 50
306.869897645844
 51
413.130102354156
 73
     1
 97
        2
330
225
330
224
 75
     0
 76
     1
 98
        1
 10
0.0
 20
0.0
  0
HATCH
  5
311
330
1F
100
AcDbEntity
  8
1
  6
Continuous
 62
     2
100
AcDbHatch
 10
0.0
 20
0.0
 30
0.0
210
0.0
220
0.0
230
1.0
  2
SOLID
 70
     1
 71
     1
 91
        1
 92
        1
 93
        2
 72
     2
 10
-94.2061928102263
 20
163.2882730455083
 40
1.25
 50
126.869897645844
 51
233.130102354156
 73
     1
 72
     2
 10
-95.7061928102263
 20
163.2882730455083
 40
1.25
 50
306.869897645844
 51
413.130102354156
 73
     1
 97
        2
330
227
330
228
 75
     0
 76
     1
 98
        1
 10
0.0
 20
0.0
  0
HATCH
  5
312
330
1F
100
AcDbEntity
  8
1
  6
Continuous
 62
     2
100
AcDbHatch
 10
0.0
 20
0.0
 30
0.0
210
0.0
220
0.0
230
1.0
  2
SOLID
 70
     1
 71
     1
 91
        1
 92
        1
 93
        4
 72
     1
 10
-170.2961775799809
 20
158.7382730455088
 11
-170.2961775799809
 21
169.8382730455074
 72
     1
 10
-170.2961775799809
 20
169.8382730455074
 11
-168.5961775799807
 21
169.8382730455074
 72
     1
 10
-168.5961775799807
 20
169.8382730455074
 11
-168.5961775799807
 21
158.7382730455088
 72
     1
 10
-168.5961775799807
 20
158.7382730455088
 11
-170.2961775799809
 21
158.7382730455088
 97
        4
330
196
330
193
330
199
330
195
 75
     0
 76
     1
 98
        1
 10
0.0
 20
0.0
  0
HATCH
  5
313
330
1F
100
AcDbEntity
  8
1
  6
Continuous
 62
     2
100
AcDbHatch
 10
0.0
 20
0.0
 30
0.0
210
0.0
220
0.0
230
1.0
  2
SOLID
 70
     1
 71
     1
 91
        1
 92
        1
 93
        4
 72
     1
 10
-25.40382242001928
 20
158.7382730455088
 11
-25.40382242001928
 21
169.8382730455074
 72
     1
 10
-25.40382242001928
 20
169.8382730455074
 11
-23.70382242001909
 21
169.8382730455074
 72
     1
 10
-23.70382242001909
 20
169.8382730455074
 11
-23.70382242001909
 21
158.7382730455088
 72
     1
 10
-23.70382242001909
 20
158.7382730455088
 11
-25.40382242001928
 21
158.7382730455088
 97
        4
330
1A1
330
1A4
330
19E
330
1A2
 75
     0
 76
     1
 98
        1
 10
0.0
 20
0.0
  0
HATCH
  5
314
330
1F
100
AcDbEntity
  8
1
  6
Continuous
 62
     7
100
AcDbHatch
 10
0.0
 20
0.0
 30
0.0
210
0.0
220
0.0
230
1.0
  2
SOLID
 70
     1
 71
     1
 91
        1
 92
        1
 93
       14
 72
     1
 10
-14.4902734624205
 20
13.86454086225376
 11
-15.32369931125729
 21
14.345363467352
 72
     1
 10
-15.32369931125729
 20
14.345363467352
 11
-15.32369931125729
 21
12.83333333333326
 72
     1
 10
-15.32369931125729
 20
12.83333333333326
 11
-14.32369931125729
 21
12.83333333333326
 72
     2
 10
-14.32369931125729
 20
12.5
 40
0.3333333333334298
 50
270.0
 51
450.0
 73
     0
 72
     1
 10
-14.32369931125729
 20
12.16666666666657
 11
-15.32369931125729
 21
12.16666666666657
 72
     1
 10
-15.32369931125729
 20
12.16666666666657
 11
-15.32369931125729
 21
10.654636532648
 72
     1
 10
-15.32369931125729
 20
10.654636532648
 11
-14.4902734624205
 21
11.13545913774618
 72
     2
 10
-14.32369931125729
 20
10.84673060906317
 40
0.3333333333333121
 50
240.0183606311602
 51
420.0183606311651
 73
     0
 72
     1
 10
-14.15712516009418
 20
10.55800208038028
 11
-15.4904584934275
 21
9.788771311149674
 72
     2
 10
-15.65703264459069
 20
10.07749983983257
 40
0.3333333333332007
 50
60.01836063115361
 51
180.0
 73
     0
 72
     1
 10
-15.99036597792389
 20
10.07749983983257
 11
-15.99036597792389
 21
14.92250016016737
 72
     2
 10
-15.65703264459069
 20
14.92250016016737
 40
0.3333333333333598
 50
180.0
 51
299.9816393688461
 73
     0
 72
     1
 10
-15.4904584934275
 20
15.21122868885027
 11
-14.15712516009418
 21
14.44199791961938
 72
     2
 10
-14.32369931125729
 20
14.15326939093666
 40
0.333333333333372
 50
299.9816393688496
 51
479.9816393688491
 73
     0
 97
       14
330
1C9
330
2BD
330
1E0
330
2BC
330
1C2
330
232
330
1C3
330
1C4
330
1C5
330
233
330
1C6
330
1C7
330
1C8
330
234
 75
     0
 76
     1
 98
        1
 10
0.0
 20
0.0
  0
HATCH
  5
315
330
1F
100
AcDbEntity
  8
1
  6
Continuous
 62
     7
100
AcDbHatch
 10
0.0
 20
0.0
 30
0.0
210
0.0
220
0.0
230
1.0
  2
SOLID
 70
     1
 71
     1
 91
        1
 92
        1
 93
        5
 72
     1
 10
-21.99036597792409
 20
14.15326939093666
 11
-21.99036597792409
 21
11.0392519172633
 72
     1
 10
-21.99036597792409
 20
11.0392519172633
 11
-21.99036597792409
 21
10.84673060906317
 72
     2
 10
-22.32369931125729
 20
10.84673060906317
 40
0.3333333333333997
 50
0.0
 51
180.0
 73
     0
 72
     1
 10
-22.65703264459069
 20
10.84673060906317
 11
-22.65703264459069
 21
14.15326939093666
 72
     2
 10
-22.32369931125729
 20
14.15326939093666
 40
0.3333333333332007
 50
180.0
 51
360.0
 73
     0
 97
        5
330
1CC
330
1CB
330
235
330
1CA
330
236
 75
     0
 76
     1
 98
        1
 10
0.0
 20
0.0
  0
HATCH
  5
316
330
1F
100
AcDbEntity
  8
1
  6
Continuous
 62
     7
100
AcDbHatch
 10
0.0
 20
0.0
 30
0.0
210
0.0
220
0.0
230
1.0
  2
SOLID
 70
     1
 71
     1
 91
        1
 92
        1
 93
        7
 72
     1
 10
-20.65703264459069
 20
14.92250016016737
 11
-20.65703264459069
 21
10.2700211480327
 72
     1
 10
-20.65703264459069
 20
10.2700211480327
 11
-18.4904584934275
 21
9.020074522361597
 72
     2
 10
-18.65703264459069
 20
8.731345993678701
 40
0.3333333333333673
 50
299.9816393688464
 51
479.9816393688495
 73
     0
 72
     1
 10
-18.8236067957539
 20
8.442617464995806
 11
-20.99018094691701
 21
9.692564090666906
 72
     2
 10
-20.65703264459069
 20
10.2700211480327
 40
0.6666666666666003
 50
119.981639368842
 51
179.9999999999896
 73
     0
 72
     1
 10
-21.32369931125729
 20
10.27002114803258
 11
-21.32369931125729
 21
14.92250016016737
 72
     2
 10
-20.99036597792409
 20
14.92250016016737
 40
0.3333333333333997
 50
180.0
 51
360.0
 73
     0
 97
        7
330
1CF
330
1CE
330
237
330
1CD
330
2C0
330
1D0
330
238
 75
     0
 76
     1
 98
        1
 10
0.0
 20
0.0
  0
HATCH
  5
317
330
1F
100
AcDbEntity
  8
1
  6
Continuous
 62
     7
100
AcDbHatch
 10
0.0
 20
0.0
 30
0.0
210
0.0
220
0.0
230
1.0
  2
SOLID
 70
     1
 71
     1
 91
        1
 92
        1
 93
       16
 72
     2
 10
-19.72539976544869
 20
15.73121731203457
 40
0.2649662124752854
 50
30.00000000001921
 51
180.0
 73
     1
 72
     1
 10
-19.99036597792409
 20
15.73121731203457
 11
-19.99036597792409
 21
12.5
 72
     1
 10
-19.99036597792409
 20
12.5
 11
-19.99036597792409
 21
10.84758507263291
 72
     2
 10
-19.65703264459069
 20
10.84758507263291
 40
0.3333333333333997
 50
180.0
 51
360.0
 73
     1
 72
     1
 10
-19.32369931125729
 20
10.84758507263291
 11
-19.32369931125729
 21
12.5
 72
     1
 10
-19.32369931125729
 20
12.5
 11
-19.32369931125729
 21
14.23205080756878
 72
     1
 10
-19.32369931125729
 20
14.23205080756878
 11
-18.46803687855478
 21
12.75
 72
     2
 10
-18.32369931125729
 20
12.83333333333326
 40
0.1666666666667028
 50
209.9999999999634
 51
330.0000000000195
 73
     1
 72
     1
 10
-18.1793617439599
 20
12.75
 11
-17.32369931125729
 21
14.23205080756878
 72
     1
 10
-17.32369931125729
 20
14.23205080756878
 11
-17.32369931125729
 21
12.5
 72
     1
 10
-17.32369931125729
 20
12.5
 11
-17.32369931125729
 21
9.308269070601796
 72
     2
 10
-16.99036597792389
 20
9.308269070601796
 40
0.3333333333333997
 50
180.0
 51
360.0
 73
     1
 72
     1
 10
-16.65703264459069
 20
9.308269070601796
 11
-16.65703264459069
 21
15.73121731203457
 72
     2
 10
-16.921998857066
 20
15.73121731203457
 40
0.2649662124753114
 50
0.0
 51
149.9999999999689
 73
     1
 72
     1
 10
-17.15146632821399
 20
15.86370041827229
 11
-18.32369931125729
 21
13.83333333333326
 72
     1
 10
-18.32369931125729
 20
13.83333333333326
 11
-19.49593229430059
 21
15.86370041827229
 97
       16
330
1D1
330
239
330
1D2
330
23A
330
1D3
330
1DF
330
1DE
330
2C1
330
1DD
330
1DC
330
1D4
330
23B
330
1D5
330
1D7
330
23C
330
1D6
 75
     0
 76
     1
 98
        1
 10
0.0
 20
0.0
  0
ENDSEC
  0
SECTION
  2
OBJECTS
  0
DICTIONARY
  5
C
330
0
100
AcDbDictionary
281
     1
  3
ACAD_GROUP
350
D
  3
ACAD_LAYOUT
350
1A
  3
ACAD_MATERIAL
350
3B
  3
ACAD_MLEADERSTYLE
350
31A
  3
ACAD_MLINESTYLE
350
17
  3
ACAD_PLOTSETTINGS
350
19
  3
ACAD_PLOTSTYLENAME
350
E
  3
ACAD_VISUALSTYLE
350
2A
  3
AcDbVariableDictionary
350
318
  0
DICTIONARY
  5
D
102
{ACAD_REACTORS
330
C
102
}
330
C
100
AcDbDictionary
281
     1
  0
DICTIONARY
  5
1A
102
{ACAD_REACTORS
330
C
102
}
330
C
100
AcDbDictionary
281
     1
  3
Layout1
350
1E
  3
Layout2
350
26
  3
Model
350
22
  0
DICTIONARY
  5
3B
102
{ACAD_REACTORS
330
C
102
}
330
C
100
AcDbDictionary
281
     1
  3
ByBlock
350
3D
  3
ByLayer
350
3C
  3
Global
350
3E
  0
DICTIONARY
  5
31A
102
{ACAD_REACTORS
330
C
102
}
330
C
100
AcDbDictionary
281
     1
  0
DICTIONARY
  5
17
102
{ACAD_REACTORS
330
C
102
}
330
C
100
AcDbDictionary
281
     1
  3
Standard
350
18
  0
DICTIONARY
  5
19
102
{ACAD_REACTORS
330
C
102
}
330
C
100
AcDbDictionary
281
     1
  0
ACDBDICTIONARYWDFLT
  5
E
102
{ACAD_REACTORS
330
C
102
}
330
C
100
AcDbDictionary
281
     1
  3
Normal
350
F
100
AcDbDictionaryWithDefault
340
F
  0
DICTIONARY
  5
2A
102
{ACAD_REACTORS
330
C
102
}
330
C
100
AcDbDictionary
281
     1
  3
2dWireframe
350
2F
  3
3D Hidden
350
31
  3
3dWireframe
350
30
  3
Basic
350
32
  3
Brighten
350
36
  3
ColorChange
350
3A
  3
Conceptual
350
34
  3
Dim
350
35
  3
Facepattern
350
39
  3
Flat
350
2B
  3
FlatWithEdges
350
2C
  3
Gouraud
350
2D
  3
GouraudWithEdges
350
2E
  3
Linepattern
350
38
  3
Realistic
350
33
  3
Thicken
350
37
  0
DICTIONARY
  5
318
102
{ACAD_REACTORS
330
C
102
}
330
C
100
AcDbDictionary
281
     1
  3
DIMASSOC
350
31B
  3
HIDETEXT
350
31C
  0
LAYOUT
  5
1E
102
{ACAD_REACTORS
330
1A
102
}
330
1A
100
AcDbPlotSettings
  1

  2
none_device
  4

  6

 40
0.0
 41
0.0
 42
0.0
 43
0.0
 44
0.0
 45
0.0
 46
0.0
 47
0.0
 48
0.0
 49
0.0
140
0.0
141
0.0
142
1.0
143
1.0
 70
   688
 72
     0
 73
     0
 74
     5
  7

 75
    16
147
1.0
148
0.0
149
0.0
100
AcDbLayout
  1
Layout1
 70
     1
 71
     1
 10
0.0
 20
0.0
 11
12.0
 21
9.0
 12
0.0
 22
0.0
 32
0.0
 14
1.00000000000000E+20
 24
1.00000000000000E+20
 34
1.00000000000000E+20
 15
-1.00000000000000E+20
 25
-1.00000000000000E+20
 35
-1.00000000000000E+20
146
0.0
 13
0.0
 23
0.0
 33
0.0
 16
1.0
 26
0.0
 36
0.0
 17
0.0
 27
1.0
 37
0.0
 76
     0
330
1B
  0
LAYOUT
  5
26
102
{ACAD_REACTORS
330
1A
102
}
330
1A
100
AcDbPlotSettings
  1

  2
none_device
  4

  6

 40
0.0
 41
0.0
 42
0.0
 43
0.0
 44
0.0
 45
0.0
 46
0.0
 47
0.0
 48
0.0
 49
0.0
140
0.0
141
0.0
142
1.0
143
1.0
 70
   688
 72
     0
 73
     0
 74
     5
  7

 75
    16
147
1.0
148
0.0
149
0.0
100
AcDbLayout
  1
Layout2
 70
     1
 71
     2
 10
0.0
 20
0.0
 11
0.0
 21
0.0
 12
0.0
 22
0.0
 32
0.0
 14
0.0
 24
0.0
 34
0.0
 15
0.0
 25
0.0
 35
0.0
146
0.0
 13
0.0
 23
0.0
 33
0.0
 16
1.0
 26
0.0
 36
0.0
 17
0.0
 27
1.0
 37
0.0
 76
     0
330
23
  0
LAYOUT
  5
22
102
{ACAD_REACTORS
330
1A
102
}
330
1A
100
AcDbPlotSettings
  1

  2
none_device
  4

  6

 40
0.0
 41
0.0
 42
0.0
 43
0.0
 44
0.0
 45
0.0
 46
0.0
 47
0.0
 48
0.0
 49
0.0
140
0.0
141
0.0
142
1.0
143
1.0
 70
  1712
 72
     0
 73
     0
 74
     0
  7

 75
     0
147
1.0
148
0.0
149
0.0
100
AcDbLayout
  1
Model
 70
     1
 71
     0
 10
0.0
 20
0.0
 11
12.0
 21
9.0
 12
0.0
 22
0.0
 32
0.0
 14
-210.0000000000001
 24
0.0
 34
0.0
 15
0.0
 25
297.0000000000001
 35
0.0
146
0.0
 13
0.0
 23
0.0
 33
0.0
 16
1.0
 26
0.0
 36
0.0
 17
0.0
 27
1.0
 37
0.0
 76
     0
330
1F
331
29
  0
MATERIAL
  5
3D
102
{ACAD_REACTORS
330
3B
102
}
102
{ACAD_XDICTIONARY
360
33F
102
}
330
3B
100
AcDbMaterial
  1
ByBlock
  0
MATERIAL
  5
3C
102
{ACAD_REACTORS
330
3B
102
}
102
{ACAD_XDICTIONARY
360
33D
102
}
330
3B
100
AcDbMaterial
  1
ByLayer
  0
MATERIAL
  5
3E
102
{ACAD_REACTORS
330
3B
102
}
102
{ACAD_XDICTIONARY
360
341
102
}
330
3B
100
AcDbMaterial
  1
Global
  0
MLINESTYLE
  5
18
102
{ACAD_REACTORS
330
17
102
}
330
17
100
AcDbMlineStyle
  2
Standard
 70
     0
  3

 62
   256
 51
90.0
 52
90.0
 71
     2
 49
0.5
 62
   256
  6
BYLAYER
 49
-0.5
 62
   256
  6
BYLAYER
  0
ACDBPLACEHOLDER
  5
F
102
{ACAD_REACTORS
330
E
102
}
330
E
  0
VISUALSTYLE
  5
2F
102
{ACAD_REACTORS
330
2A
102
}
102
{ACAD_XDICTIONARY
360
325
102
}
330
2A
100
AcDbVisualStyle
  2
2dWireframe
 70
     4
 71
     0
 72
     2
 73
     0
 90
        0
 40
-0.6
 41
-30.0
 62
     5
 63
     7
 74
     1
 91
        4
 64
     7
 65
   257
 75
     1
175
     1
 42
1.0
 92
        0
 66
   257
 43
1.0
 76
     1
 77
     6
 78
     2
 67
     7
 79
     5
170
     0
171
     0
290
     0
174
     0
 93
        1
 44
0.0
173
     0
291
     0
 45
0.0
1001
ACAD
1000
AcDbSavedByObjectVersion
1070
     0
  0
VISUALSTYLE
  5
31
102
{ACAD_REACTORS
330
2A
102
}
102
{ACAD_XDICTIONARY
360
329
102
}
330
2A
100
AcDbVisualStyle
  2
3D Hidden
 70
     6
 71
     1
 72
     2
 73
     2
 90
        0
 40
-0.6
 41
-30.0
 62
     5
 63
     7
 74
     2
 91
        2
 64
     7
 65
   257
 75
     2
175
     1
 42
40.0
 92
        0
 66
   257
 43
1.0
 76
     1
 77
     6
 78
     2
 67
     7
 79
     3
170
     0
171
     0
290
     0
174
     0
 93
        1
 44
0.0
173
     0
291
     0
 45
0.0
1001
ACAD
1000
AcDbSavedByObjectVersion
1070
     0
  0
VISUALSTYLE
  5
30
102
{ACAD_REACTORS
330
2A
102
}
102
{ACAD_XDICTIONARY
360
327
102
}
330
2A
100
AcDbVisualStyle
  2
3dWireframe
 70
     5
 71
     0
 72
     2
 73
     0
 90
        0
 40
-0.6
 41
-30.0
 62
     5
 63
     7
 74
     1
 91
        4
 64
     7
 65
   257
 75
     1
175
     1
 42
1.0
 92
        0
 66
   257
 43
1.0
 76
     1
 77
     6
 78
     2
 67
     7
 79
     5
170
     0
171
     0
290
     0
174
     0
 93
        1
 44
0.0
173
     0
291
     0
 45
0.0
1001
ACAD
1000
AcDbSavedByObjectVersion
1070
     0
  0
VISUALSTYLE
  5
32
102
{ACAD_REACTORS
330
2A
102
}
102
{ACAD_XDICTIONARY
360
32B
102
}
330
2A
100
AcDbVisualStyle
  2
Basic
 70
     7
 71
     1
 72
     0
 73
     1
 90
        0
 40
-0.6
 41
-30.0
 62
     5
 63
     7
 74
     0
 91
        4
 64
     7
 65
   257
 75
     1
175
     1
 42
1.0
 92
        8
 66
     7
 43
1.0
 76
     1
 77
     6
 78
     2
 67
     7
 79
     5
170
     0
171
     0
290
     0
174
     0
 93
        1
 44
0.0
173
     0
291
     1
 45
0.0
1001
ACAD
1000
AcDbSavedByObjectVersion
1070
     0
  0
VISUALSTYLE
  5
36
102
{ACAD_REACTORS
330
2A
102
}
102
{ACAD_XDICTIONARY
360
333
102
}
330
2A
100
AcDbVisualStyle
  2
Brighten
 70
    12
 71
     2
 72
     2
 73
     0
 90
        0
 40
-0.6
 41
-30.0
 62
     5
 63
     7
 74
     1
 91
        4
 64
     7
 65
   257
 75
     1
175
     1
 42
1.0
 92
        8
 66
     7
 43
1.0
 76
     1
 77
     6
 78
     2
 67
     7
 79
     5
170
     0
171
     0
290
     0
174
     0
 93
        1
 44
50.0
173
     0
291
     1
 45
0.0
1001
ACAD
1000
AcDbSavedByObjectVersion
1070
     0
  0
VISUALSTYLE
  5
3A
102
{ACAD_REACTORS
330
2A
102
}
102
{ACAD_XDICTIONARY
360
33B
102
}
330
2A
100
AcDbVisualStyle
  2
ColorChange
 70
    16
 71
     2
 72
     2
 73
     3
 90
        0
 40
-0.6
 41
-30.0
 62
     5
 63
     8
 74
     1
 91
        4
 64
     7
 65
   257
 75
     1
175
     1
 42
1.0
 92
        8
 66
     8
 43
1.0
 76
     1
 77
     6
 78
     2
 67
     7
 79
     5
170
     0
171
     0
290
     0
174
     0
 93
        1
 44
0.0
173
     0
291
     1
 45
0.0
1001
ACAD
1000
AcDbSavedByObjectVersion
1070
     0
  0
VISUALSTYLE
  5
34
102
{ACAD_REACTORS
330
2A
102
}
102
{ACAD_XDICTIONARY
360
32F
102
}
330
2A
100
AcDbVisualStyle
  2
Conceptual
 70
     9
 71
     3
 72
     2
 73
     0
 90
        0
 40
-0.6
 41
-30.0
 62
     5
 63
     7
 74
     2
 91
        2
 64
     7
 65
   257
 75
     1
175
     1
 42
40.0
 92
        8
 66
     7
 43
1.0
 76
     1
 77
     6
 78
     2
 67
     7
 79
     3
170
     0
171
     0
290
     0
174
     0
 93
        1
 44
0.0
173
     0
291
     0
 45
0.0
1001
ACAD
1000
AcDbSavedByObjectVersion
1070
     0
  0
VISUALSTYLE
  5
35
102
{ACAD_REACTORS
330
2A
102
}
102
{ACAD_XDICTIONARY
360
331
102
}
330
2A
100
AcDbVisualStyle
  2
Dim
 70
    11
 71
     2
 72
     2
 73
     0
 90
        0
 40
-0.6
 41
-30.0
 62
     5
 63
     7
 74
     1
 91
        4
 64
     7
 65
   257
 75
     1
175
     1
 42
1.0
 92
        8
 66
     7
 43
1.0
 76
     1
 77
     6
 78
     2
 67
     7
 79
     5
170
     0
171
     0
290
     0
174
     0
 93
        1
 44
-50.0
173
     0
291
     1
 45
0.0
1001
ACAD
1000
AcDbSavedByObjectVersion
1070
     0
  0
VISUALSTYLE
  5
39
102
{ACAD_REACTORS
330
2A
102
}
102
{ACAD_XDICTIONARY
360
339
102
}
330
2A
100
AcDbVisualStyle
  2
Facepattern
 70
    15
 71
     2
 72
     2
 73
     0
 90
        0
 40
-0.6
 41
-30.0
 62
     5
 63
     7
 74
     1
 91
        4
 64
     7
 65
   257
 75
     1
175
     1
 42
1.0
 92
        8
 66
     7
 43
1.0
 76
     1
 77
     6
 78
     2
 67
     7
 79
     5
170
     0
171
     0
290
     0
174
     0
 93
        1
 44
0.0
173
     0
291
     1
 45
0.0
1001
ACAD
1000
AcDbSavedByObjectVersion
1070
     0
  0
VISUALSTYLE
  5
2B
102
{ACAD_REACTORS
330
2A
102
}
102
{ACAD_XDICTIONARY
360
31D
102
}
330
2A
100
AcDbVisualStyle
  2
Flat
 70
     0
 71
     2
 72
     1
 73
     1
 90
        2
 40
-0.6
 41
30.0
 62
     5
 63
     7
 74
     0
 91
        4
 64
     7
 65
   257
 75
     1
175
     1
 42
1.0
 92
        8
 66
     7
 43
1.0
 76
     1
 77
     6
 78
     2
 67
     7
 79
     5
170
     0
171
     0
290
     0
174
     0
 93
       13
 44
0.0
173
     0
291
     1
 45
0.0
1001
ACAD
1000
AcDbSavedByObjectVersion
1070
     0
  0
VISUALSTYLE
  5
2C
102
{ACAD_REACTORS
330
2A
102
}
102
{ACAD_XDICTIONARY
360
31F
102
}
330
2A
100
AcDbVisualStyle
  2
FlatWithEdges
 70
     1
 71
     2
 72
     1
 73
     1
 90
        2
 40
-0.6
 41
30.0
 62
     5
 63
     7
 74
     1
 91
        4
 64
     7
 65
   257
 75
     1
175
     1
 42
1.0
 92
        0
 66
   257
 43
1.0
 76
     1
 77
     6
 78
     2
 67
     7
 79
     5
170
     0
171
     0
290
     0
174
     0
 93
       13
 44
0.0
173
     0
291
     1
 45
0.0
1001
ACAD
1000
AcDbSavedByObjectVersion
1070
     0
  0
VISUALSTYLE
  5
2D
102
{ACAD_REACTORS
330
2A
102
}
102
{ACAD_XDICTIONARY
360
321
102
}
330
2A
100
AcDbVisualStyle
  2
Gouraud
 70
     2
 71
     2
 72
     2
 73
     1
 90
        2
 40
-0.6
 41
30.0
 62
     5
 63
     7
 74
     0
 91
        4
 64
     7
 65
   257
 75
     1
175
     1
 42
1.0
 92
        0
 66
     7
 43
1.0
 76
     1
 77
     6
 78
     2
 67
     7
 79
     5
170
     0
171
     0
290
     0
174
     0
 93
       13
 44
0.0
173
     0
291
     1
 45
0.0
1001
ACAD
1000
AcDbSavedByObjectVersion
1070
     0
  0
VISUALSTYLE
  5
2E
102
{ACAD_REACTORS
330
2A
102
}
102
{ACAD_XDICTIONARY
360
323
102
}
330
2A
100
AcDbVisualStyle
  2
GouraudWithEdges
 70
     3
 71
     2
 72
     2
 73
     1
 90
        2
 40
-0.6
 41
30.0
 62
     5
 63
     7
 74
     1
 91
        4
 64
     7
 65
   257
 75
     1
175
     1
 42
1.0
 92
        0
 66
   257
 43
1.0
 76
     1
 77
     6
 78
     2
 67
     7
 79
     5
170
     0
171
     0
290
     0
174
     0
 93
       13
 44
0.0
173
     0
291
     1
 45
0.0
1001
ACAD
1000
AcDbSavedByObjectVersion
1070
     0
  0
VISUALSTYLE
  5
38
102
{ACAD_REACTORS
330
2A
102
}
102
{ACAD_XDICTIONARY
360
337
102
}
330
2A
100
AcDbVisualStyle
  2
Linepattern
 70
    14
 71
     2
 72
     2
 73
     0
 90
        0
 40
-0.6
 41
-30.0
 62
     5
 63
     7
 74
     1
 91
        4
 64
     7
 65
   257
 75
     7
175
     7
 42
1.0
 92
        8
 66
     7
 43
1.0
 76
     1
 77
     6
 78
     2
 67
     7
 79
     5
170
     0
171
     0
290
     0
174
     0
 93
        1
 44
0.0
173
     0
291
     1
 45
0.0
1001
ACAD
1000
AcDbSavedByObjectVersion
1070
     0
  0
VISUALSTYLE
  5
33
102
{ACAD_REACTORS
330
2A
102
}
102
{ACAD_XDICTIONARY
360
32D
102
}
330
2A
100
AcDbVisualStyle
  2
Realistic
 70
     8
 71
     2
 72
     2
 73
     0
 90
        0
 40
-0.6
 41
-30.0
 62
     5
 63
     7
 74
     1
 91
        0
 64
     7
 65
   257
 75
     1
175
     1
 42
1.0
 92
        8
 66
     8
 43
1.0
 76
     1
 77
     6
 78
     2
 67
     7
 79
     5
170
     0
171
     0
290
     0
174
     0
 93
       13
 44
0.0
173
     0
291
     0
 45
0.0
1001
ACAD
1000
AcDbSavedByObjectVersion
1070
     0
  0
VISUALSTYLE
  5
37
102
{ACAD_REACTORS
330
2A
102
}
102
{ACAD_XDICTIONARY
360
335
102
}
330
2A
100
AcDbVisualStyle
  2
Thicken
 70
    13
 71
     2
 72
     2
 73
     0
 90
        0
 40
-0.6
 41
-30.0
 62
     5
 63
     7
 74
     1
 91
        4
 64
     7
 65
   257
 75
     1
175
     1
 42
1.0
 92
       12
 66
     7
 43
1.0
 76
     1
 77
     6
 78
     2
 67
     7
 79
     5
170
     0
171
     0
290
     0
174
     0
 93
        1
 44
0.0
173
     0
291
     1
 45
0.0
1001
ACAD
1000
AcDbSavedByObjectVersion
1070
     0
  0
DICTIONARYVAR
  5
31B
102
{ACAD_REACTORS
330
318
102
}
330
318
100
DictionaryVariables
280
     0
  1
2
  0
DICTIONARYVAR
  5
31C
102
{ACAD_REACTORS
330
318
102
}
330
318
100
DictionaryVariables
280
     0
  1
1
  0
DICTIONARY
  5
33F
330
3D
100
AcDbDictionary
280
     1
281
     1
  3
ACAD_XREC_ROUNDTRIP
360
340
  0
DICTIONARY
  5
33D
330
3C
100
AcDbDictionary
280
     1
281
     1
  3
ACAD_XREC_ROUNDTRIP
360
33E
  0
DICTIONARY
  5
341
330
3E
100
AcDbDictionary
280
     1
281
     1
  3
ACAD_XREC_ROUNDTRIP
360
342
  0
DICTIONARY
  5
325
330
2F
100
AcDbDictionary
280
     1
281
     1
  3
ACAD_XREC_ROUNDTRIP
360
326
  0
DICTIONARY
  5
329
330
31
100
AcDbDictionary
280
     1
281
     1
  3
ACAD_XREC_ROUNDTRIP
360
32A
  0
DICTIONARY
  5
327
330
30
100
AcDbDictionary
280
     1
281
     1
  3
ACAD_XREC_ROUNDTRIP
360
328
  0
DICTIONARY
  5
32B
330
32
100
AcDbDictionary
280
     1
281
     1
  3
ACAD_XREC_ROUNDTRIP
360
32C
  0
DICTIONARY
  5
333
330
36
100
AcDbDictionary
280
     1
281
     1
  3
ACAD_XREC_ROUNDTRIP
360
334
  0
DICTIONARY
  5
33B
330
3A
100
AcDbDictionary
280
     1
281
     1
  3
ACAD_XREC_ROUNDTRIP
360
33C
  0
DICTIONARY
  5
32F
330
34
100
AcDbDictionary
280
     1
281
     1
  3
ACAD_XREC_ROUNDTRIP
360
330
  0
DICTIONARY
  5
331
330
35
100
AcDbDictionary
280
     1
281
     1
  3
ACAD_XREC_ROUNDTRIP
360
332
  0
DICTIONARY
  5
339
330
39
100
AcDbDictionary
280
     1
281
     1
  3
ACAD_XREC_ROUNDTRIP
360
33A
  0
DICTIONARY
  5
31D
330
2B
100
AcDbDictionary
280
     1
281
     1
  3
ACAD_XREC_ROUNDTRIP
360
31E
  0
DICTIONARY
  5
31F
330
2C
100
AcDbDictionary
280
     1
281
     1
  3
ACAD_XREC_ROUNDTRIP
360
320
  0
DICTIONARY
  5
321
330
2D
100
AcDbDictionary
280
     1
281
     1
  3
ACAD_XREC_ROUNDTRIP
360
322
  0
DICTIONARY
  5
323
330
2E
100
AcDbDictionary
280
     1
281
     1
  3
ACAD_XREC_ROUNDTRIP
360
324
  0
DICTIONARY
  5
337
330
38
100
AcDbDictionary
280
     1
281
     1
  3
ACAD_XREC_ROUNDTRIP
360
338
  0
DICTIONARY
  5
32D
330
33
100
AcDbDictionary
280
     1
281
     1
  3
ACAD_XREC_ROUNDTRIP
360
32E
  0
DICTIONARY
  5
335
330
37
100
AcDbDictionary
280
     1
281
     1
  3
ACAD_XREC_ROUNDTRIP
360
336
  0
XRECORD
  5
340
102
{ACAD_REACTORS
330
33F
102
}
330
33F
100
AcDbXrecord
280
     1
102
MATERIAL
148
0.0
149
0.0
149
0.0
 93
        0
 94
      127
282
     0
 72
     1
 77
     1
171
     1
175
     1
179
     1
273
     0
  0
XRECORD
  5
33E
102
{ACAD_REACTORS
330
33D
102
}
330
33D
100
AcDbXrecord
280
     1
102
MATERIAL
148
0.0
149
0.0
149
0.0
 93
        0
 94
      127
282
     0
 72
     1
 77
     1
171
     1
175
     1
179
     1
273
     0
  0
XRECORD
  5
342
102
{ACAD_REACTORS
330
341
102
}
330
341
100
AcDbXrecord
280
     1
102
MATERIAL
148
0.0
149
0.0
149
0.0
 93
        0
 94
      127
282
     0
 72
     1
 77
     1
171
     1
175
     1
179
     1
273
     0
  0
XRECORD
  5
326
102
{ACAD_REACTORS
330
325
102
}
330
325
100
AcDbXrecord
280
     1
102
RTVSPropertyOp0
 70
     1
102
RTVSPropertyOp1
 70
     1
102
RTVSPropertyOp2
 70
     1
102
RTVSPropertyOp3
 70
     1
102
RTVSPropertyOp4
 70
     1
102
RTVSPropertyOp5
 70
     1
102
RTVSPropertyOp6
 70
     1
102
RTVSPropertyOp7
 70
     1
102
RTVSPropertyOp8
 70
     1
102
RTVSPropertyOp9
 70
     1
102
RTVSPropertyOp10
 70
     1
102
RTVSPropertyOp11
 70
     1
102
RTVSPropertyOp12
 70
     1
102
RTVSPropertyOp13
 70
     1
102
RTVSPropertyOp14
 70
     1
102
RTVSPropertyOp15
 70
     1
102
RTVSPropertyOp16
 70
     1
102
RTVSPropertyOp17
 70
     1
102
RTVSPropertyOp18
 70
     1
102
RTVSPropertyOp19
 70
     1
102
RTVSPropertyOp20
 70
     1
102
RTVSPropertyOp21
 70
     1
102
RTVSPropertyOp22
 70
     1
102
RTVSPropertyOp23
 70
     1
102
RTVSPropertyOp24
 70
     1
102
RTVSPropertyOp25
 70
     1
102
RTVSPropertyOp26
 70
     1
102
RTVSPropertyOp27
 70
     1
102
RTVSPropertyOp28
 70
     1
102
RTVSPropertyOp29
 70
     1
102
RTVSPropertyOp30
 70
     1
102
RTVSPropertyOp31
 70
     1
102
RTVSPropertyOp32
 70
     1
  0
XRECORD
  5
32A
102
{ACAD_REACTORS
330
329
102
}
330
329
100
AcDbXrecord
280
     1
102
RTVSPropertyOp0
 70
     1
102
RTVSPropertyOp1
 70
     1
102
RTVSPropertyOp2
 70
     1
102
RTVSPropertyOp3
 70
     1
102
RTVSPropertyOp4
 70
     1
102
RTVSPropertyOp5
 70
     1
102
RTVSPropertyOp6
 70
     1
102
RTVSPropertyOp7
 70
     1
102
RTVSPropertyOp8
 70
     1
102
RTVSPropertyOp9
 70
     1
102
RTVSPropertyOp10
 70
     1
102
RTVSPropertyOp11
 70
     1
102
RTVSPropertyOp12
 70
     1
102
RTVSPropertyOp13
 70
     1
102
RTVSPropertyOp14
 70
     1
102
RTVSPropertyOp15
 70
     1
102
RTVSPropertyOp16
 70
     1
102
RTVSPropertyOp17
 70
     1
102
RTVSPropertyOp18
 70
     1
102
RTVSPropertyOp19
 70
     1
102
RTVSPropertyOp20
 70
     1
102
RTVSPropertyOp21
 70
     1
102
RTVSPropertyOp22
 70
     1
102
RTVSPropertyOp23
 70
     1
102
RTVSPropertyOp24
 70
     1
102
RTVSPropertyOp25
 70
     1
102
RTVSPropertyOp26
 70
     1
102
RTVSPropertyOp27
 70
     1
102
RTVSPropertyOp28
 70
     1
102
RTVSPropertyOp29
 70
     1
102
RTVSPropertyOp30
 70
     1
102
RTVSPropertyOp31
 70
     1
102
RTVSPropertyOp32
 70
     1
  0
XRECORD
  5
328
102
{ACAD_REACTORS
330
327
102
}
330
327
100
AcDbXrecord
280
     1
102
RTVSPropertyOp0
 70
     1
102
RTVSPropertyOp1
 70
     1
102
RTVSPropertyOp2
 70
     1
102
RTVSPropertyOp3
 70
     1
102
RTVSPropertyOp4
 70
     1
102
RTVSPropertyOp5
 70
     1
102
RTVSPropertyOp6
 70
     1
102
RTVSPropertyOp7
 70
     1
102
RTVSPropertyOp8
 70
     1
102
RTVSPropertyOp9
 70
     1
102
RTVSPropertyOp10
 70
     1
102
RTVSPropertyOp11
 70
     1
102
RTVSPropertyOp12
 70
     1
102
RTVSPropertyOp13
 70
     1
102
RTVSPropertyOp14
 70
     1
102
RTVSPropertyOp15
 70
     1
102
RTVSPropertyOp16
 70
     1
102
RTVSPropertyOp17
 70
     1
102
RTVSPropertyOp18
 70
     1
102
RTVSPropertyOp19
 70
     1
102
RTVSPropertyOp20
 70
     1
102
RTVSPropertyOp21
 70
     1
102
RTVSPropertyOp22
 70
     1
102
RTVSPropertyOp23
 70
     1
102
RTVSPropertyOp24
 70
     1
102
RTVSPropertyOp25
 70
     1
102
RTVSPropertyOp26
 70
     1
102
RTVSPropertyOp27
 70
     1
102
RTVSPropertyOp28
 70
     1
102
RTVSPropertyOp29
 70
     1
102
RTVSPropertyOp30
 70
     1
102
RTVSPropertyOp31
 70
     1
102
RTVSPropertyOp32
 70
     1
  0
XRECORD
  5
32C
102
{ACAD_REACTORS
330
32B
102
}
330
32B
100
AcDbXrecord
280
     1
102
RTVSPropertyOp0
 70
     1
102
RTVSPropertyOp1
 70
     1
102
RTVSPropertyOp2
 70
     1
102
RTVSPropertyOp3
 70
     1
102
RTVSPropertyOp4
 70
     1
102
RTVSPropertyOp5
 70
     1
102
RTVSPropertyOp6
 70
     1
102
RTVSPropertyOp7
 70
     1
102
RTVSPropertyOp8
 70
     1
102
RTVSPropertyOp9
 70
     1
102
RTVSPropertyOp10
 70
     1
102
RTVSPropertyOp11
 70
     1
102
RTVSPropertyOp12
 70
     1
102
RTVSPropertyOp13
 70
     1
102
RTVSPropertyOp14
 70
     1
102
RTVSPropertyOp15
 70
     1
102
RTVSPropertyOp16
 70
     1
102
RTVSPropertyOp17
 70
     1
102
RTVSPropertyOp18
 70
     1
102
RTVSPropertyOp19
 70
     1
102
RTVSPropertyOp20
 70
     1
102
RTVSPropertyOp21
 70
     1
102
RTVSPropertyOp22
 70
     1
102
RTVSPropertyOp23
 70
     1
102
RTVSPropertyOp24
 70
     1
102
RTVSPropertyOp25
 70
     1
102
RTVSPropertyOp26
 70
     1
102
RTVSPropertyOp27
 70
     1
102
RTVSPropertyOp28
 70
     1
102
RTVSPropertyOp29
 70
     1
102
RTVSPropertyOp30
 70
     1
102
RTVSPropertyOp31
 70
     1
102
RTVSPropertyOp32
 70
     1
  0
XRECORD
  5
334
102
{ACAD_REACTORS
330
333
102
}
330
333
100
AcDbXrecord
280
     1
102
RTVSPropertyOp0
 70
     1
102
RTVSPropertyOp1
 70
     1
102
RTVSPropertyOp2
 70
     1
102
RTVSPropertyOp3
 70
     1
102
RTVSPropertyOp4
 70
     1
102
RTVSPropertyOp5
 70
     1
102
RTVSPropertyOp6
 70
     1
102
RTVSPropertyOp7
 70
     1
102
RTVSPropertyOp8
 70
     1
102
RTVSPropertyOp9
 70
     1
102
RTVSPropertyOp10
 70
     1
102
RTVSPropertyOp11
 70
     1
102
RTVSPropertyOp12
 70
     1
102
RTVSPropertyOp13
 70
     1
102
RTVSPropertyOp14
 70
     1
102
RTVSPropertyOp15
 70
     1
102
RTVSPropertyOp16
 70
     1
102
RTVSPropertyOp17
 70
     1
102
RTVSPropertyOp18
 70
     1
102
RTVSPropertyOp19
 70
     1
102
RTVSPropertyOp20
 70
     1
102
RTVSPropertyOp21
 70
     1
102
RTVSPropertyOp22
 70
     1
102
RTVSPropertyOp23
 70
     1
102
RTVSPropertyOp24
 70
     1
102
RTVSPropertyOp25
 70
     1
102
RTVSPropertyOp26
 70
     1
102
RTVSPropertyOp27
 70
     1
102
RTVSPropertyOp28
 70
     1
102
RTVSPropertyOp29
 70
     1
102
RTVSPropertyOp30
 70
     1
102
RTVSPropertyOp31
 70
     1
102
RTVSPropertyOp32
 70
     1
  0
XRECORD
  5
33C
102
{ACAD_REACTORS
330
33B
102
}
330
33B
100
AcDbXrecord
280
     1
102
RTVSPropertyOp0
 70
     1
102
RTVSPropertyOp1
 70
     1
102
RTVSPropertyOp2
 70
     1
102
RTVSPropertyOp3
 70
     1
102
RTVSPropertyOp4
 70
     1
102
RTVSPropertyOp5
 70
     1
102
RTVSPropertyOp6
 70
     1
102
RTVSPropertyOp7
 70
     1
102
RTVSPropertyOp8
 70
     1
102
RTVSPropertyOp9
 70
     1
102
RTVSPropertyOp10
 70
     1
102
RTVSPropertyOp11
 70
     1
102
RTVSPropertyOp12
 70
     1
102
RTVSPropertyOp13
 70
     1
102
RTVSPropertyOp14
 70
     1
102
RTVSPropertyOp15
 70
     1
102
RTVSPropertyOp16
 70
     1
102
RTVSPropertyOp17
 70
     1
102
RTVSPropertyOp18
 70
     1
102
RTVSPropertyOp19
 70
     1
102
RTVSPropertyOp20
 70
     1
102
RTVSPropertyOp21
 70
     1
102
RTVSPropertyOp22
 70
     1
102
RTVSPropertyOp23
 70
     1
102
RTVSPropertyOp24
 70
     1
102
RTVSPropertyOp25
 70
     1
102
RTVSPropertyOp26
 70
     1
102
RTVSPropertyOp27
 70
     1
102
RTVSPropertyOp28
 70
     1
102
RTVSPropertyOp29
 70
     1
102
RTVSPropertyOp30
 70
     1
102
RTVSPropertyOp31
 70
     1
102
RTVSPropertyOp32
 70
     1
  0
XRECORD
  5
330
102
{ACAD_REACTORS
330
32F
102
}
330
32F
100
AcDbXrecord
280
     1
102
RTVSPropertyOp0
 70
     1
102
RTVSPropertyOp1
 70
     1
102
RTVSPropertyOp2
 70
     1
102
RTVSPropertyOp3
 70
     1
102
RTVSPropertyOp4
 70
     1
102
RTVSPropertyOp5
 70
     1
102
RTVSPropertyOp6
 70
     1
102
RTVSPropertyOp7
 70
     1
102
RTVSPropertyOp8
 70
     1
102
RTVSPropertyOp9
 70
     1
102
RTVSPropertyOp10
 70
     1
102
RTVSPropertyOp11
 70
     1
102
RTVSPropertyOp12
 70
     1
102
RTVSPropertyOp13
 70
     1
102
RTVSPropertyOp14
 70
     1
102
RTVSPropertyOp15
 70
     1
102
RTVSPropertyOp16
 70
     1
102
RTVSPropertyOp17
 70
     1
102
RTVSPropertyOp18
 70
     1
102
RTVSPropertyOp19
 70
     1
102
RTVSPropertyOp20
 70
     1
102
RTVSPropertyOp21
 70
     1
102
RTVSPropertyOp22
 70
     1
102
RTVSPropertyOp23
 70
     1
102
RTVSPropertyOp24
 70
     1
102
RTVSPropertyOp25
 70
     1
102
RTVSPropertyOp26
 70
     1
102
RTVSPropertyOp27
 70
     1
102
RTVSPropertyOp28
 70
     1
102
RTVSPropertyOp29
 70
     1
102
RTVSPropertyOp30
 70
     1
102
RTVSPropertyOp31
 70
     1
102
RTVSPropertyOp32
 70
     1
  0
XRECORD
  5
332
102
{ACAD_REACTORS
330
331
102
}
330
331
100
AcDbXrecord
280
     1
102
RTVSPropertyOp0
 70
     1
102
RTVSPropertyOp1
 70
     1
102
RTVSPropertyOp2
 70
     1
102
RTVSPropertyOp3
 70
     1
102
RTVSPropertyOp4
 70
     1
102
RTVSPropertyOp5
 70
     1
102
RTVSPropertyOp6
 70
     1
102
RTVSPropertyOp7
 70
     1
102
RTVSPropertyOp8
 70
     1
102
RTVSPropertyOp9
 70
     1
102
RTVSPropertyOp10
 70
     1
102
RTVSPropertyOp11
 70
     1
102
RTVSPropertyOp12
 70
     1
102
RTVSPropertyOp13
 70
     1
102
RTVSPropertyOp14
 70
     1
102
RTVSPropertyOp15
 70
     1
102
RTVSPropertyOp16
 70
     1
102
RTVSPropertyOp17
 70
     1
102
RTVSPropertyOp18
 70
     1
102
RTVSPropertyOp19
 70
     1
102
RTVSPropertyOp20
 70
     1
102
RTVSPropertyOp21
 70
     1
102
RTVSPropertyOp22
 70
     1
102
RTVSPropertyOp23
 70
     1
102
RTVSPropertyOp24
 70
     1
102
RTVSPropertyOp25
 70
     1
102
RTVSPropertyOp26
 70
     1
102
RTVSPropertyOp27
 70
     1
102
RTVSPropertyOp28
 70
     1
102
RTVSPropertyOp29
 70
     1
102
RTVSPropertyOp30
 70
     1
102
RTVSPropertyOp31
 70
     1
102
RTVSPropertyOp32
 70
     1
  0
XRECORD
  5
33A
102
{ACAD_REACTORS
330
339
102
}
330
339
100
AcDbXrecord
280
     1
102
RTVSPropertyOp0
 70
     1
102
RTVSPropertyOp1
 70
     1
102
RTVSPropertyOp2
 70
     1
102
RTVSPropertyOp3
 70
     1
102
RTVSPropertyOp4
 70
     1
102
RTVSPropertyOp5
 70
     1
102
RTVSPropertyOp6
 70
     1
102
RTVSPropertyOp7
 70
     1
102
RTVSPropertyOp8
 70
     1
102
RTVSPropertyOp9
 70
     1
102
RTVSPropertyOp10
 70
     1
102
RTVSPropertyOp11
 70
     1
102
RTVSPropertyOp12
 70
     1
102
RTVSPropertyOp13
 70
     1
102
RTVSPropertyOp14
 70
     1
102
RTVSPropertyOp15
 70
     1
102
RTVSPropertyOp16
 70
     1
102
RTVSPropertyOp17
 70
     1
102
RTVSPropertyOp18
 70
     1
102
RTVSPropertyOp19
 70
     1
102
RTVSPropertyOp20
 70
     1
102
RTVSPropertyOp21
 70
     1
102
RTVSPropertyOp22
 70
     1
102
RTVSPropertyOp23
 70
     1
102
RTVSPropertyOp24
 70
     1
102
RTVSPropertyOp25
 70
     1
102
RTVSPropertyOp26
 70
     1
102
RTVSPropertyOp27
 70
     1
102
RTVSPropertyOp28
 70
     1
102
RTVSPropertyOp29
 70
     1
102
RTVSPropertyOp30
 70
     1
102
RTVSPropertyOp31
 70
     1
102
RTVSPropertyOp32
 70
     1
  0
XRECORD
  5
31E
102
{ACAD_REACTORS
330
31D
102
}
330
31D
100
AcDbXrecord
280
     1
102
RTVSPropertyOp0
 70
     1
102
RTVSPropertyOp1
 70
     1
102
RTVSPropertyOp2
 70
     1
102
RTVSPropertyOp3
 70
     1
102
RTVSPropertyOp4
 70
     1
102
RTVSPropertyOp5
 70
     1
102
RTVSPropertyOp6
 70
     1
102
RTVSPropertyOp7
 70
     1
102
RTVSPropertyOp8
 70
     1
102
RTVSPropertyOp9
 70
     1
102
RTVSPropertyOp10
 70
     1
102
RTVSPropertyOp11
 70
     1
102
RTVSPropertyOp12
 70
     1
102
RTVSPropertyOp13
 70
     1
102
RTVSPropertyOp14
 70
     1
102
RTVSPropertyOp15
 70
     1
102
RTVSPropertyOp16
 70
     1
102
RTVSPropertyOp17
 70
     1
102
RTVSPropertyOp18
 70
     1
102
RTVSPropertyOp19
 70
     1
102
RTVSPropertyOp20
 70
     1
102
RTVSPropertyOp21
 70
     1
102
RTVSPropertyOp22
 70
     1
102
RTVSPropertyOp23
 70
     1
102
RTVSPropertyOp24
 70
     1
102
RTVSPropertyOp25
 70
     1
102
RTVSPropertyOp26
 70
     1
102
RTVSPropertyOp27
 70
     1
102
RTVSPropertyOp28
 70
     1
102
RTVSPropertyOp29
 70
     1
102
RTVSPropertyOp30
 70
     1
102
RTVSPropertyOp31
 70
     1
102
RTVSPropertyOp32
 70
     1
  0
XRECORD
  5
320
102
{ACAD_REACTORS
330
31F
102
}
330
31F
100
AcDbXrecord
280
     1
102
RTVSPropertyOp0
 70
     1
102
RTVSPropertyOp1
 70
     1
102
RTVSPropertyOp2
 70
     1
102
RTVSPropertyOp3
 70
     1
102
RTVSPropertyOp4
 70
     1
102
RTVSPropertyOp5
 70
     1
102
RTVSPropertyOp6
 70
     1
102
RTVSPropertyOp7
 70
     1
102
RTVSPropertyOp8
 70
     1
102
RTVSPropertyOp9
 70
     1
102
RTVSPropertyOp10
 70
     1
102
RTVSPropertyOp11
 70
     1
102
RTVSPropertyOp12
 70
     1
102
RTVSPropertyOp13
 70
     1
102
RTVSPropertyOp14
 70
     1
102
RTVSPropertyOp15
 70
     1
102
RTVSPropertyOp16
 70
     1
102
RTVSPropertyOp17
 70
     1
102
RTVSPropertyOp18
 70
     1
102
RTVSPropertyOp19
 70
     1
102
RTVSPropertyOp20
 70
     1
102
RTVSPropertyOp21
 70
     1
102
RTVSPropertyOp22
 70
     1
102
RTVSPropertyOp23
 70
     1
102
RTVSPropertyOp24
 70
     1
102
RTVSPropertyOp25
 70
     1
102
RTVSPropertyOp26
 70
     1
102
RTVSPropertyOp27
 70
     1
102
RTVSPropertyOp28
 70
     1
102
RTVSPropertyOp29
 70
     1
102
RTVSPropertyOp30
 70
     1
102
RTVSPropertyOp31
 70
     1
102
RTVSPropertyOp32
 70
     1
  0
XRECORD
  5
322
102
{ACAD_REACTORS
330
321
102
}
330
321
100
AcDbXrecord
280
     1
102
RTVSPropertyOp0
 70
     1
102
RTVSPropertyOp1
 70
     1
102
RTVSPropertyOp2
 70
     1
102
RTVSPropertyOp3
 70
     1
102
RTVSPropertyOp4
 70
     1
102
RTVSPropertyOp5
 70
     1
102
RTVSPropertyOp6
 70
     1
102
RTVSPropertyOp7
 70
     1
102
RTVSPropertyOp8
 70
     1
102
RTVSPropertyOp9
 70
     1
102
RTVSPropertyOp10
 70
     1
102
RTVSPropertyOp11
 70
     1
102
RTVSPropertyOp12
 70
     1
102
RTVSPropertyOp13
 70
     1
102
RTVSPropertyOp14
 70
     1
102
RTVSPropertyOp15
 70
     1
102
RTVSPropertyOp16
 70
     1
102
RTVSPropertyOp17
 70
     1
102
RTVSPropertyOp18
 70
     1
102
RTVSPropertyOp19
 70
     1
102
RTVSPropertyOp20
 70
     1
102
RTVSPropertyOp21
 70
     1
102
RTVSPropertyOp22
 70
     1
102
RTVSPropertyOp23
 70
     1
102
RTVSPropertyOp24
 70
     1
102
RTVSPropertyOp25
 70
     1
102
RTVSPropertyOp26
 70
     1
102
RTVSPropertyOp27
 70
     1
102
RTVSPropertyOp28
 70
     1
102
RTVSPropertyOp29
 70
     1
102
RTVSPropertyOp30
 70
     1
102
RTVSPropertyOp31
 70
     1
102
RTVSPropertyOp32
 70
     1
  0
XRECORD
  5
324
102
{ACAD_REACTORS
330
323
102
}
330
323
100
AcDbXrecord
280
     1
102
RTVSPropertyOp0
 70
     1
102
RTVSPropertyOp1
 70
     1
102
RTVSPropertyOp2
 70
     1
102
RTVSPropertyOp3
 70
     1
102
RTVSPropertyOp4
 70
     1
102
RTVSPropertyOp5
 70
     1
102
RTVSPropertyOp6
 70
     1
102
RTVSPropertyOp7
 70
     1
102
RTVSPropertyOp8
 70
     1
102
RTVSPropertyOp9
 70
     1
102
RTVSPropertyOp10
 70
     1
102
RTVSPropertyOp11
 70
     1
102
RTVSPropertyOp12
 70
     1
102
RTVSPropertyOp13
 70
     1
102
RTVSPropertyOp14
 70
     1
102
RTVSPropertyOp15
 70
     1
102
RTVSPropertyOp16
 70
     1
102
RTVSPropertyOp17
 70
     1
102
RTVSPropertyOp18
 70
     1
102
RTVSPropertyOp19
 70
     1
102
RTVSPropertyOp20
 70
     1
102
RTVSPropertyOp21
 70
     1
102
RTVSPropertyOp22
 70
     1
102
RTVSPropertyOp23
 70
     1
102
RTVSPropertyOp24
 70
     1
102
RTVSPropertyOp25
 70
     1
102
RTVSPropertyOp26
 70
     1
102
RTVSPropertyOp27
 70
     1
102
RTVSPropertyOp28
 70
     1
102
RTVSPropertyOp29
 70
     1
102
RTVSPropertyOp30
 70
     1
102
RTVSPropertyOp31
 70
     1
102
RTVSPropertyOp32
 70
     1
  0
XRECORD
  5
338
102
{ACAD_REACTORS
330
337
102
}
330
337
100
AcDbXrecord
280
     1
102
RTVSPropertyOp0
 70
     1
102
RTVSPropertyOp1
 70
     1
102
RTVSPropertyOp2
 70
     1
102
RTVSPropertyOp3
 70
     1
102
RTVSPropertyOp4
 70
     1
102
RTVSPropertyOp5
 70
     1
102
RTVSPropertyOp6
 70
     1
102
RTVSPropertyOp7
 70
     1
102
RTVSPropertyOp8
 70
     1
102
RTVSPropertyOp9
 70
     1
102
RTVSPropertyOp10
 70
     1
102
RTVSPropertyOp11
 70
     1
102
RTVSPropertyOp12
 70
     1
102
RTVSPropertyOp13
 70
     1
102
RTVSPropertyOp14
 70
     1
102
RTVSPropertyOp15
 70
     1
102
RTVSPropertyOp16
 70
     1
102
RTVSPropertyOp17
 70
     1
102
RTVSPropertyOp18
 70
     1
102
RTVSPropertyOp19
 70
     1
102
RTVSPropertyOp20
 70
     1
102
RTVSPropertyOp21
 70
     1
102
RTVSPropertyOp22
 70
     1
102
RTVSPropertyOp23
 70
     1
102
RTVSPropertyOp24
 70
     1
102
RTVSPropertyOp25
 70
     1
102
RTVSPropertyOp26
 70
     1
102
RTVSPropertyOp27
 70
     1
102
RTVSPropertyOp28
 70
     1
102
RTVSPropertyOp29
 70
     1
102
RTVSPropertyOp30
 70
     1
102
RTVSPropertyOp31
 70
     1
102
RTVSPropertyOp32
 70
     1
  0
XRECORD
  5
32E
102
{ACAD_REACTORS
330
32D
102
}
330
32D
100
AcDbXrecord
280
     1
102
RTVSPropertyOp0
 70
     1
102
RTVSPropertyOp1
 70
     1
102
RTVSPropertyOp2
 70
     1
102
RTVSPropertyOp3
 70
     1
102
RTVSPropertyOp4
 70
     1
102
RTVSPropertyOp5
 70
     1
102
RTVSPropertyOp6
 70
     1
102
RTVSPropertyOp7
 70
     1
102
RTVSPropertyOp8
 70
     1
102
RTVSPropertyOp9
 70
     1
102
RTVSPropertyOp10
 70
     1
102
RTVSPropertyOp11
 70
     1
102
RTVSPropertyOp12
 70
     1
102
RTVSPropertyOp13
 70
     1
102
RTVSPropertyOp14
 70
     1
102
RTVSPropertyOp15
 70
     1
102
RTVSPropertyOp16
 70
     1
102
RTVSPropertyOp17
 70
     1
102
RTVSPropertyOp18
 70
     1
102
RTVSPropertyOp19
 70
     1
102
RTVSPropertyOp20
 70
     1
102
RTVSPropertyOp21
 70
     1
102
RTVSPropertyOp22
 70
     1
102
RTVSPropertyOp23
 70
     1
102
RTVSPropertyOp24
 70
     1
102
RTVSPropertyOp25
 70
     1
102
RTVSPropertyOp26
 70
     1
102
RTVSPropertyOp27
 70
     1
102
RTVSPropertyOp28
 70
     1
102
RTVSPropertyOp29
 70
     1
102
RTVSPropertyOp30
 70
     1
102
RTVSPropertyOp31
 70
     1
102
RTVSPropertyOp32
 70
     1
  0
XRECORD
  5
336
102
{ACAD_REACTORS
330
335
102
}
330
335
100
AcDbXrecord
280
     1
102
RTVSPropertyOp0
 70
     1
102
RTVSPropertyOp1
 70
     1
102
RTVSPropertyOp2
 70
     1
102
RTVSPropertyOp3
 70
     1
102
RTVSPropertyOp4
 70
     1
102
RTVSPropertyOp5
 70
     1
102
RTVSPropertyOp6
 70
     1
102
RTVSPropertyOp7
 70
     1
102
RTVSPropertyOp8
 70
     1
102
RTVSPropertyOp9
 70
     1
102
RTVSPropertyOp10
 70
     1
102
RTVSPropertyOp11
 70
     1
102
RTVSPropertyOp12
 70
     1
102
RTVSPropertyOp13
 70
     1
102
RTVSPropertyOp14
 70
     1
102
RTVSPropertyOp15
 70
     1
102
RTVSPropertyOp16
 70
     1
102
RTVSPropertyOp17
 70
     1
102
RTVSPropertyOp18
 70
     1
102
RTVSPropertyOp19
 70
     1
102
RTVSPropertyOp20
 70
     1
102
RTVSPropertyOp21
 70
     1
102
RTVSPropertyOp22
 70
     1
102
RTVSPropertyOp23
 70
     1
102
RTVSPropertyOp24
 70
     1
102
RTVSPropertyOp25
 70
     1
102
RTVSPropertyOp26
 70
     1
102
RTVSPropertyOp27
 70
     1
102
RTVSPropertyOp28
 70
     1
102
RTVSPropertyOp29
 70
     1
102
RTVSPropertyOp30
 70
     1
102
RTVSPropertyOp31
 70
     1
102
RTVSPropertyOp32
 70
     1
  0
ENDSEC
  0
EOF
